<?xml version="1.0" standalone="no"?>
<!DOCTYPE svg PUBLIC "-//W3C//DTD SVG 1.1//EN" "http://www.w3.org/Graphics/SVG/1.1/DTD/svg11.dtd" >
<svg>
<metadata>
Created by FontForge 20090914 at Wed Aug  1 21:19:10 2012
 By www-data
Digitized data copyright &#194;&#169; 2007, Google Corporation.
</metadata>
<defs>
<font id="DroidSerif-Italic" horiz-adv-x="1145" >
  <font-face 
    font-family="Droid Serif"
    font-weight="400"
    font-style="italic"
    font-stretch="normal"
    units-per-em="2048"
    panose-1="2 2 6 0 6 5 0 9 2 0"
    ascent="1638"
    descent="-410"
    x-height="1098"
    cap-height="1462"
    bbox="-522 -492.001 2306 1907"
    underline-thickness="102"
    underline-position="-103"
    slope="-12"
    unicode-range="U+0020-U+2044"
  />
<missing-glyph horiz-adv-x="2048" 
 />
    <glyph glyph-name=".notdef" horiz-adv-x="2048" 
 />
    <glyph glyph-name="space" unicode=" " horiz-adv-x="532" 
 />
    <glyph glyph-name="exclam" unicode="!" horiz-adv-x="682" 
d="M410 1462h237l-295 -1050h-94zM250 -16c-84.667 0 -127 41.667 -127 125c0 47.333 12.167 85.333 36.5 114s57.166 43 98.499 43c84.667 0 127 -41.667 127 -125c0 -48.667 -12.167 -87 -36.5 -115s-57.166 -42 -98.499 -42z" />
    <glyph glyph-name="quotedbl" unicode="&#x22;" horiz-adv-x="836" 
d="M694 1462h217l-163 -481h-95zM309 1462h217l-164 -481h-94z" />
    <glyph glyph-name="numbersign" unicode="#" 
d="M1038 537l-14 -121h-258l-121 -416h-123l121 416h-285l-120 -416h-123l121 416h-168l14 121h190l119 401h-244l13 121h266l117 403h125l-119 -403h285l118 403h123l-119 -403h160l-12 -121h-182l-117 -401h233zM397 537h285l117 401h-285z" />
    <glyph glyph-name="dollar" unicode="$" 
d="M412 76c-113.333 8 -202.164 37.3311 -266.497 87.998s-96.5 113.334 -96.5 188.001c0 51.333 16.833 92.166 50.5 122.499s69.5 45.5 107.5 45.5c0 -90 20.167 -165.833 60.5 -227.5s95.166 -99.834 164.499 -114.501l107 502c-180.667 90 -271 206.667 -271 350
c0 111.333 37.167 199.333 111.5 264s179.166 100.334 314.499 107.001l33 155h102l-32 -155c196.667 -17.333 295 -85.666 295 -204.999c0 -94 -55.333 -141 -166 -141c0 146.667 -50 231.334 -150 254.001l-104 -492l22 -12
c123.333 -67.333 201.666 -125.333 234.999 -174s50 -102.667 50 -162c0 -112 -41.167 -203.667 -123.5 -275s-196.833 -111.333 -343.5 -120l-49 -236h-103zM580.002 863.998l94 447c-143.333 -24 -215 -108 -215 -252c0 -79.333 40.333 -144.333 121 -195z
M633.002 634.998l-97.999 -461c77.333 6.66699 138.166 33 182.499 79s66.5 103 66.5 171c0 88 -50.333 158.333 -151 211z" />
    <glyph glyph-name="percent" unicode="%" horiz-adv-x="1835" 
d="M565 1481c182 0 272.999 -108.667 272.999 -326c0 -138 -40.167 -269.167 -120.5 -393.5s-186.5 -186.5 -318.5 -186.5c-83.333 0 -148.166 27.833 -194.499 83.5s-69.5 136.5 -69.5 242.5c0 144 39.333 276.667 118 398s182.667 182 312 182zM296.999 870
c0 -140.667 37 -211 111 -211s135.833 59.167 185.5 177.5s74.5 235.5 74.5 351.5c0 140.667 -37 211 -111 211s-135.833 -59 -185.5 -177s-74.5 -235.333 -74.5 -352zM493.999 0h-152l1028 1462h143zM1470 889c182 0 272.999 -108.667 272.999 -326
c0 -138 -40.167 -269 -120.5 -393s-186.166 -186 -317.499 -186c-176.667 0 -265 108.333 -265 325c0 144 39.333 276.667 118 398s182.667 182 312 182zM1202 279c0 -140.667 37 -211 111 -211s135.833 58.833 185.5 176.5s74.5 234.834 74.5 351.501
c0 140.667 -37 211 -111 211s-135.833 -58.833 -185.5 -176.5s-74.5 -234.834 -74.5 -351.501z" />
    <glyph glyph-name="ampersand" unicode="&#x26;" horiz-adv-x="1520" 
d="M1096 0l-122.998 170.002c-123.333 -126.667 -274.333 -190 -453 -190c-140.667 0 -250.5 34.833 -329.5 104.5s-118.5 162.167 -118.5 277.5c0 106 32 195.667 96 269s175.333 139.333 334 198c-66 111.333 -99 211.666 -99 300.999c0 113.333 37.167 200.5 111.5 261.5
s182.833 91.5 325.5 91.5c110.667 0 196 -24 256 -72s90 -112.667 90 -194c0 -88.667 -25 -160.334 -75 -215.001s-174 -117.667 -372 -189l287 -393c58 109.333 101 230 129 362l16 80h369l-18 -86h-19c-68 0 -117.333 -10.167 -148 -30.5s-52.834 -40 -66.501 -59
s-47.834 -85.5 -102.501 -199.5c-26 -54 -56 -107.667 -90 -161l112 -154c42 -57.333 109 -86 201 -86h18l-18 -86h-313zM682.002 895.002c115.333 43.333 197.001 86.833 245.001 130.5s72 102.5 72 176.5c0 54 -15.833 97.5 -47.5 130.5s-73.834 49.5 -126.501 49.5
c-150 0 -225 -79 -225 -237c0 -76 27.333 -159.333 82 -250zM909.003 258.002l-348.001 482.999c-106.667 -48.667 -181.167 -100.5 -223.5 -155.5s-63.5 -127.833 -63.5 -218.5c0 -79.333 23.833 -144.666 71.5 -195.999s112.834 -77 195.501 -77
c141.333 0 264 54.667 368 164z" />
    <glyph glyph-name="quotesingle" unicode="'" horiz-adv-x="451" 
d="M301 1462h217l-164 -481h-94z" />
    <glyph glyph-name="parenleft" unicode="(" horiz-adv-x="709" 
d="M469 -168l-19.999 -94c-242 106 -363 320.333 -363 643c0 275.333 66.167 524 198.5 746s316.166 365 551.499 429l-21 -92c-188.667 -102.667 -325.167 -275.167 -409.5 -517.5s-126.5 -462.833 -126.5 -661.5c0 -214 63.333 -365 190 -453z" />
    <glyph glyph-name="parenright" unicode=")" horiz-adv-x="709" 
d="M266 1446l21.001 94c241.333 -105.333 362 -319.666 362 -642.999c0 -276.667 -66.667 -526.167 -200 -748.5s-316.333 -364.833 -549 -427.5l20 93c189.333 102 326.166 275.167 410.499 519.5s126.5 464.166 126.5 659.499c0 213.333 -63.667 364.333 -191 453z" />
    <glyph glyph-name="asterisk" unicode="*" horiz-adv-x="1024" 
d="M281 1354l104 143l266 -260l17 330l174 -37l-123 -305l350 123l37 -172l-361 -27l318 -170l-102 -139l-271 252l-12 -328l-174 37l119 305l-349 -125l-36 172l358 29z" />
    <glyph glyph-name="plus" unicode="+" 
d="M649 672v-379h-123v379h-376v121h376v378h123v-378h379v-121h-379z" />
    <glyph glyph-name="comma" unicode="," horiz-adv-x="512" 
d="M-57 -299l8 86c139.333 31.333 209 88.666 209 171.999c0 24 -22 50 -66 78c-44.667 28 -67 62.667 -67 104c0 36.667 11.667 66 35 88s54 33 92 33c46 0 84 -15.167 114 -45.5s45 -71.166 45 -122.499c0 -100 -31.667 -184.5 -95 -253.5s-155 -115.5 -275 -139.5z" />
    <glyph glyph-name="hyphen" unicode="-" horiz-adv-x="635" 
d="M29 481l32 154h533l-33 -154h-532z" />
    <glyph glyph-name="period" unicode="." horiz-adv-x="586" 
d="M217 -16c-84.667 0 -127 41.667 -127 125c0 47.333 12.167 85.333 36.5 114s57.166 43 98.499 43c84.667 0 127 -41.667 127 -125c0 -48 -12.167 -86.167 -36.5 -114.5s-57.166 -42.5 -98.499 -42.5z" />
    <glyph glyph-name="slash" unicode="/" horiz-adv-x="590" 
d="M-61 -248h-129l841 1804h129z" />
    <glyph glyph-name="zero" unicode="0" 
d="M696 1485c120 0 214.833 -41 284.5 -123s104.5 -197.333 104.5 -346c0 -262.667 -55.667 -501.5 -167 -716.5s-258.333 -322.5 -441 -322.5c-122 0 -218.333 43.667 -289 131s-106 209 -106 365c0 262.667 56.667 497 170 703s261.333 309 444 309zM494 90
c118.667 0 213.833 98.5 285.5 295.5s107.5 420.167 107.5 669.5c0 212.667 -70.333 319 -211 319c-119.333 0 -215 -99 -287 -297s-108 -419 -108 -663c0 -216 71 -324 213 -324z" />
    <glyph glyph-name="one" unicode="1" 
d="M872 1470l-263.999 -1245c-5.33301 -25.333 -8 -44.333 -8 -57c0 -54.667 49.333 -82 148 -82h110l-18 -86h-762l16 86h109c64.667 0 111.667 12.167 141 36.5s49 61.166 59 110.499l160 754c23.333 109.333 48.666 216.666 75.999 321.999h-8
c-86 -84.667 -150 -141.334 -192 -170.001s-81 -43 -117 -43c-54.667 0 -82 36.667 -82 110c93.333 22.667 205 75.334 335 158.001l166 106h131z" />
    <glyph glyph-name="two" unicode="2" 
d="M-35 0l43.001 166l481 434c127.333 114.667 216.666 214 267.999 298s77 176 77 276c0 63.333 -17 113.5 -51 150.5s-80 55.5 -138 55.5c-157.333 0 -254.333 -103 -291 -309c-96.667 0 -145 43.667 -145 131c0 76 41.167 141.833 123.5 197.5s189.833 83.5 322.5 83.5
c123.333 0 218.666 -26 285.999 -78s101 -125.667 101 -221c0 -81.333 -29 -165.166 -87 -251.499s-171 -204.5 -339 -354.5l-460 -414h475c44.667 0 82.834 10.167 114.501 30.5s61.167 61.166 88.5 122.499l14 33h86l-82 -350h-887z" />
    <glyph glyph-name="three" unicode="3" 
d="M362 705l20.999 104.001h66c116 0 211.5 35.667 286.5 107s112.5 164 112.5 278c0 124 -58 186 -174 186c-152 0 -249 -101.667 -291 -305c-101.333 0 -152 43.667 -152 131c0 79.333 42.5 145.333 127.5 198s192.833 79 323.5 79c116 0 207.833 -26.333 275.5 -79
s101.5 -124 101.5 -214c0 -104 -36.833 -194.333 -110.5 -271s-174.167 -126.334 -301.5 -149.001c98 -10 173.667 -42.833 227 -98.5s80 -125.834 80 -210.501c0 -154 -53.167 -272.667 -159.5 -356s-240.833 -125 -403.5 -125c-131.333 0 -230.333 19.5 -297 58.5
s-100 91.167 -100 156.5c0 45.333 14.333 81.833 43 109.5s66.334 41.5 113.001 41.5c0 -74.667 22.333 -135.667 67 -183s107.667 -71 189 -71c97.333 0 177.166 31 239.499 93s93.5 146.333 93.5 253c0 84.667 -25.167 150.334 -75.5 197.001s-121.166 70 -212.499 70h-89
z" />
    <glyph glyph-name="four" unicode="4" 
d="M262 0l17 86.001h90c64.667 0 111.667 12.167 141 36.5s49 61.166 59 110.499l33 168h-631l19 84l839 977h197l-203 -946h254l-24 -115h-254l-35 -176c-5.33301 -26.667 -8 -45.667 -8 -57c0 -54.667 49 -82 147 -82h47l-18 -86h-670zM707 899.001
c32.667 154.667 66 287 100 397c-56.667 -86 -116.667 -164.333 -180 -235l-465 -545h465z" />
    <glyph glyph-name="five" unicode="5" 
d="M258 717l-70.001 14l220 731h684l-56 -309h-86c4 52 6 84 6 96c0 32.667 -31.333 49 -94 49h-397l-135 -456c66 21.333 131.333 32 196 32c134.667 0 240 -33.333 316 -100s114 -158.667 114 -276c0 -152 -53.167 -276.333 -159.5 -373s-246.833 -145 -421.5 -145
c-239.333 0 -359 68 -359 204c0 84.667 51.333 127 154 127c4.66699 -146 79 -219 223 -219c110 0 195.833 34.333 257.5 103s92.5 164.667 92.5 288c0 88 -23.833 156.5 -71.5 205.5s-111.167 73.5 -190.5 73.5c-73.333 0 -147.666 -15 -222.999 -45z" />
    <glyph glyph-name="six" unicode="6" 
d="M360 782c101.333 71.333 202 107 302 107c108 0 192.667 -32.5 254 -97.5s92 -152.167 92 -261.5c0 -158.667 -44.833 -290 -134.5 -394s-211.5 -156 -365.5 -156c-115.333 0 -208.333 43.833 -279 131.5s-106 208.834 -106 363.501
c0 275.333 66.167 512.166 198.5 710.499s299.5 297.5 501.5 297.5c97.333 0 174 -17.667 230 -53s84 -79.333 84 -132c0 -102 -59.667 -153 -179 -153c0 92.667 -11.667 155.667 -35 189s-58 50 -104 50c-205.333 0 -358.333 -200.667 -459 -602zM338 666
c-19.333 -109.333 -29.002 -198.333 -29.002 -267c0 -204.667 70.333 -307 211 -307c82.667 0 150.834 40 204.501 120s80.5 182 80.5 306c0 177.333 -61.333 266 -184 266c-91.333 0 -185.666 -39.333 -282.999 -118z" />
    <glyph glyph-name="seven" unicode="7" 
d="M221 0l758 1298h-539c-74.667 0 -121.667 -34.667 -141 -104l-29 -102h-86l88 370h916l-12 -59l-801 -1403h-154z" />
    <glyph glyph-name="eight" unicode="8" 
d="M426 748c-134 96 -200.998 208.999 -200.998 338.999c0 124.667 42.167 221.834 126.5 291.501s205.5 104.5 363.5 104.5c116 0 207.833 -27.5 275.5 -82.5s101.5 -127.167 101.5 -216.5c0 -88 -26.833 -163.833 -80.5 -227.5s-145.834 -122.5 -276.501 -176.5
c173.333 -100.667 260 -222.667 260 -366c0 -139.333 -48.333 -246.5 -145 -321.5s-228.334 -112.5 -395.001 -112.5c-132 0 -237.5 32.667 -316.5 98s-118.5 150 -118.5 254c0 94.667 30 174 90 238s165.333 123.333 316 178zM637.002 828.999
c181.333 77.333 271.999 190.666 271.999 339.999c0 66.667 -18.667 118.5 -56 155.5s-89 55.5 -155 55.5c-83.333 0 -150.166 -24.667 -200.499 -74s-75.5 -114.666 -75.5 -195.999c0 -110 71.667 -203.667 215 -281zM520.001 693.999
c-202 -74 -302.999 -196.001 -302.999 -366.001c0 -76.667 23.667 -137.167 71 -181.5s111.666 -66.5 192.999 -66.5c96 0 173.333 25.333 232 76s88 120.334 88 209.001c0 70.667 -22.667 131.167 -68 181.5s-116.333 99.5 -213 147.5z" />
    <glyph glyph-name="nine" unicode="9" 
d="M809 702c-89.333 -92.667 -193.667 -139 -313 -139c-106 0 -190.167 31 -252.5 93s-93.5 144.333 -93.5 247c0 166.667 52.5 305 157.5 415s232.5 165 382.5 165c115.333 0 206.666 -35.333 273.999 -106s101 -170 101 -298c0 -262.667 -62.667 -511.5 -188 -746.5
s-298.333 -352.5 -519 -352.5c-190.667 0 -286 61.333 -286 184c0 34 10.667 62.333 32 85s51 34 89 34c2.66699 -62 20.167 -111.333 52.5 -148s75.5 -55 129.5 -55c94.667 0 175.834 48.5 243.501 145.5s131.167 255.833 190.5 476.5zM841.999 850
c21.333 88.667 32.001 169.333 32.001 242c0 185.333 -63.333 278 -190 278c-90 0 -167.5 -48 -232.5 -144s-97.5 -205.667 -97.5 -329c0 -72.667 17.5 -127.667 52.5 -165s81.833 -56 140.5 -56c109.333 0 207.666 58 294.999 174z" />
    <glyph glyph-name="colon" unicode=":" horiz-adv-x="588" 
d="M377 825c-84.667 0 -127 41.667 -127 125c0 47.333 12.167 85.5 36.5 114.5s57.166 43.5 98.499 43.5c84.667 0 127 -41.667 127 -125c0 -49.333 -12.167 -88 -36.5 -116s-57.166 -42 -98.499 -42zM193 -16c-84.667 0 -127 41.667 -127 125
c0 47.333 12.167 85.333 36.5 114s57.166 43 98.499 43c40 0 71.167 -11.333 93.5 -34s33.5 -53 33.5 -91c0 -48.667 -12.167 -87 -36.5 -115s-57.166 -42 -98.499 -42z" />
    <glyph glyph-name="semicolon" unicode=";" horiz-adv-x="586" 
d="M381 825c-84.667 0 -127 41.667 -127 125c0 47.333 12.167 85.5 36.5 114.5s57.166 43.5 98.499 43.5c84.667 0 127 -41.667 127 -125c0 -49.333 -12.167 -88 -36.5 -116s-57.166 -42 -98.499 -42zM37 -299l8 86.002c139.333 31.333 209 88.666 209 171.999
c0 24 -22 50 -66 78c-44.667 28 -67 62.667 -67 104c0 36.667 11.667 66 35 88s54 33 92 33c46 0 84.167 -15.5 114.5 -46.5s45.5 -71.5 45.5 -121.5c0 -100.667 -32.167 -185.334 -96.5 -254.001s-155.833 -115 -274.5 -139z" />
    <glyph glyph-name="less" unicode="&#x3c;" 
d="M150 696v72l878 473v-137l-688 -373l688 -369v-137z" />
    <glyph glyph-name="equal" unicode="=" 
d="M1028 993v-121h-878v121h878zM1028 590v-121h-878v121h878z" />
    <glyph glyph-name="greater" unicode="&#x3e;" 
d="M150 225v137l688 369l-688 373v137l878 -473v-72z" />
    <glyph glyph-name="question" unicode="?" horiz-adv-x="1024" 
d="M565 649l-50.998 -237h-125l64 303c276.667 102.667 415 250.667 415 444c0 66.667 -18 120.167 -54 160.5s-84 60.5 -144 60.5c-140.667 0 -225.334 -96.667 -254.001 -290c-98.667 0 -148 40.667 -148 122c0 76 38.167 140.167 114.5 192.5s176.166 78.5 299.499 78.5
c258 0 387 -113.333 387 -340c0 -207.333 -168 -372 -504 -494zM406.002 -16c-84.667 0 -127 41.667 -127 125c0 47.333 12.167 85.333 36.5 114s57.166 43 98.499 43c40 0 71.167 -11.333 93.5 -34s33.5 -53 33.5 -91c0 -48.667 -12.167 -87 -36.5 -115
s-57.166 -42 -98.499 -42z" />
    <glyph glyph-name="at" unicode="@" horiz-adv-x="1886" 
d="M1135 344l-11 -0.000976562c-64.667 -124 -156.667 -186 -276 -186c-92.667 0 -167.667 31 -225 93s-86 147.667 -86 257c0 145.333 47 277.5 141 396.5s221 178.5 381 178.5c76 0 140 -20.333 192 -61l82 43h49l-104 -522c-9.33301 -46.667 -14 -92.334 -14 -137.001
c0 -42 11.167 -75.833 33.5 -101.5s52.833 -38.5 91.5 -38.5c67.333 0 128.166 50.833 182.499 152.5s81.5 231.834 81.5 390.501c0 170 -52 304 -156 402s-245.333 147 -424 147c-212 0 -394.667 -85.167 -548 -255.5s-230 -387.5 -230 -651.5
c0 -203.333 54.333 -360 163 -470s257.667 -165 447 -165c188 0 361.333 56.667 520 170l48 -74c-183.333 -135.333 -379.333 -203 -588 -203c-234.667 0 -418.667 64.833 -552 194.5s-200 310.5 -200 542.5c0 292.667 90 535.167 270 727.5s407.333 288.5 682 288.5
c214.667 0 383.834 -59.833 507.501 -179.5s185.5 -279.5 185.5 -479.5c0 -185.333 -41.5 -339.166 -124.5 -461.499s-175.5 -183.5 -277.5 -183.5c-118.667 0 -199 62 -241 186zM1182 937.999c-19.333 40.667 -57.668 61 -115.001 61c-102.667 0 -185 -56 -247 -168
s-93 -229.333 -93 -352c0 -72 14.5 -125.5 43.5 -160.5s66.5 -52.5 112.5 -52.5c114.667 0 188.334 85.333 221.001 256z" />
    <glyph glyph-name="A" unicode="A" horiz-adv-x="1444" 
d="M408 489l-123.004 -215c-26 -45.333 -39 -83.333 -39 -114c0 -49.333 38 -74 114 -74h48l-17 -86h-506l17 86h39c36.667 0 67.334 9.5 92.001 28.5s57.334 62.833 98.001 131.5l713 1216h160l194 -1267c6.66699 -42.667 18.334 -71.5 35.001 -86.5
s45.334 -22.5 86.001 -22.5h27l-17 -86h-557l16 86h48c98 0 147 34.667 147 104c0 28 -1.33301 51.333 -4 70l-33 229h-538zM880.996 950c-20.667 145.333 -31.668 253.333 -33.001 324c-31.333 -74 -84.666 -175.667 -159.999 -305l-219 -377h463z" />
    <glyph glyph-name="B" unicode="B" horiz-adv-x="1339" 
d="M-27 86h27c113.333 0 180.333 49 201 147l213 1004c5.33301 25.333 8 44.333 8 57c0 54.667 -49.333 82 -148 82h-26l18 86h531c319.333 0 479 -102.333 479 -307c0 -202 -111.333 -329 -334 -381l-2 -8c166.667 -33.333 250 -133 250 -299
c0 -150 -50.333 -265.333 -151 -346s-247 -121 -439 -121h-643zM530 817h158c243.333 0 365 103.667 365 311c0 154.667 -94.333 232 -283 232h-123zM379 102h199c260.667 0 391 126.333 391 379c0 156 -95.667 234 -287 234h-172z" />
    <glyph glyph-name="C" unicode="C" horiz-adv-x="1284" 
d="M1073 299c18 -12.667 27.002 -35.332 27.002 -67.999c0 -65.333 -38 -123.5 -114 -174.5s-180.667 -76.5 -314 -76.5c-178 0 -316.833 47.667 -416.5 143s-149.5 230.333 -149.5 405c0 258.667 80.667 482.5 242 671.5s362 283.5 602 283.5
c119.333 0 212.333 -20.5 279 -61.5s100 -96.5 100 -166.5c0 -48.667 -18.333 -87.334 -55 -116.001s-85.334 -43 -146.001 -43c0 185.333 -68 278 -204 278c-168.667 0 -309.834 -91.833 -423.501 -275.5s-170.5 -384.5 -170.5 -602.5c0 -255.333 121.333 -383 364 -383
c158 0 284.333 62 379 186z" />
    <glyph glyph-name="D" unicode="D" horiz-adv-x="1485" 
d="M-27 86h27.001c113.333 0 180.333 49 201 147l213 1004c5.33301 25.333 8 44.333 8 57c0 54.667 -49.333 82 -148 82h-26l18 86h574c186 0 329.333 -48.167 430 -144.5s151 -233.833 151 -412.5c0 -261.333 -74.333 -477.5 -223 -648.5s-347.334 -256.5 -596.001 -256.5
h-645zM557.001 104c197.333 0 353.5 75.667 468.5 227s172.5 350.333 172.5 597c0 288 -129.667 432 -389 432h-162l-268 -1256h178z" />
    <glyph glyph-name="E" unicode="E" horiz-adv-x="1276" 
d="M379 102h395.002c115.333 0 192.666 56 231.999 168l32 88h107l-90 -358h-1098l16 86h27c69.333 0 117.5 12.167 144.5 36.5s45.167 57.833 54.5 100.5l213 1006c4 18.667 6 35 6 49c0 32 -9.33301 56.333 -28 73s-57.334 25 -116.001 25h-26l18 86h1032l-65 -358h-107
l6 63c3.33301 32 5 50.667 5 56c0 91.333 -48.667 137 -146 137h-344l-117 -545h494l-20 -100h-494z" />
    <glyph glyph-name="F" unicode="F" horiz-adv-x="1208" 
d="M-27 86l27 -0.000976562c64 0 110 11 138 33s48.333 56.667 61 104l215 1014c5.33301 25.333 8 44.333 8 57c0 54.667 -49.333 82 -148 82h-26l18 86h1032l-65 -358h-107l4 36c0.666992 12.667 1.66699 24.667 3 36c2.66699 22.667 4 38.334 4 47.001
c0 91.333 -51.333 137 -154 137h-336l-127 -592h494l-21 -100h-493l-92 -435c-4.66699 -22 -7 -39 -7 -51c0 -64 47.333 -96 142 -96h67l-16 -86h-637z" />
    <glyph glyph-name="G" unicode="G" horiz-adv-x="1462" 
d="M1430 676l-18.998 -85.999h-8c-54.667 0 -94.667 -12.167 -120 -36.5s-43.333 -61.5 -54 -111.5l-78 -368c-144.667 -62.667 -299 -94 -463 -94c-186.667 0 -330.334 47.833 -431.001 143.5s-151 230.5 -151 404.5c0 271.333 83.333 498.333 250 681s377 274 631 274
c136 0 242 -20.667 318 -62s114 -94.333 114 -159c0 -50.667 -20.333 -90.334 -61 -119.001s-92.667 -43 -156 -43c0 88 -22.333 155.667 -67 203s-108.334 71 -191.001 71c-168.667 0 -313.167 -87.167 -433.5 -261.5s-180.5 -379.833 -180.5 -616.5
c0 -266.667 131.667 -400 395 -400c76.667 0 153.667 9.66699 231 29l68 326c5.33301 25.333 8 44.333 8 57c0 54.667 -49 82 -147 82h-19l19 86h545z" />
    <glyph glyph-name="H" unicode="H" horiz-adv-x="1624" 
d="M829 0l17 86.002h26c65.333 0 112.666 12.167 141.999 36.5s49 61.166 59 110.499l101 480h-666l-102 -488c-6 -28.667 -9 -47.667 -9 -57c0 -54.667 49.333 -82 148 -82h26l-18 -86h-596l16 86h27c66 0 113.333 12.5 142 37.5s48.334 61.5 59.001 109.5l213 1004
c5.33301 25.333 8 44.333 8 57c0 54.667 -49.333 82 -148 82h-26l18 86h596l-18 -86h-27c-65.333 0 -112.333 -12.333 -141 -37s-48 -61.334 -58 -110.001l-88 -414h666l90 422c5.33301 25.333 8 44.333 8 57c0 54.667 -49 82 -147 82h-27l19 86h596l-19 -86h-26
c-65.333 0 -112.333 -12.5 -141 -37.5s-48 -61.5 -58 -109.5l-213 -1004c-5.33301 -25.333 -8 -44.333 -8 -57c0 -54.667 49 -82 147 -82h27l-19 -86h-596z" />
    <glyph glyph-name="I" unicode="I" horiz-adv-x="752" 
d="M862 1462l-18 -85.999h-27c-65.333 0 -112.333 -12.333 -141 -37s-48 -61.334 -58 -110.001l-212 -1004c-6 -28.667 -9 -47.667 -9 -57c0 -54.667 49.333 -82 148 -82h26l-18 -86h-596l16 86h27c113.333 0 180.333 49 201 147l213 1004c5.33301 25.333 8 44.333 8 57
c0 54.667 -49.333 82 -148 82h-26l18 86h596z" />
    <glyph glyph-name="J" unicode="J" horiz-adv-x="731" 
d="M852 1462l-18 -85.999h-27c-65.333 0 -112.333 -12.333 -141 -37s-48 -61.334 -58 -110.001l-266 -1245c-36 -167.333 -93.167 -288.5 -171.5 -363.5s-185.166 -112.5 -320.499 -112.5c-60.667 0 -116.334 7.66699 -167.001 23l28 92c34 -12 78.333 -18 133 -18
c79.333 0 141 29.667 185 89s80 155.333 108 288l266 1255c6 28 9 47 9 57c0 54.667 -49.333 82 -148 82h-26l18 86h596z" />
    <glyph glyph-name="K" unicode="K" horiz-adv-x="1434" 
d="M-27 86l26.998 0.00195312c66 0 113.333 12.5 142 37.5s48.334 61.5 59.001 109.5l213 1004c5.33301 25.333 8 44.333 8 57c0 54.667 -49.333 82 -148 82h-26l18 86h596l-18 -86h-27c-65.333 0 -112.333 -12.333 -141 -37s-48 -61.334 -58 -110.001l-88 -414l-36 -151
l528 485c102.667 94 154 155.333 154 184c0 30 -30.333 45 -91 45l17 84h452l-16 -84c-35.333 0 -74.666 -11.833 -117.999 -35.5s-109 -75.834 -197 -156.501l-373 -338l248 -598c45.333 -109.333 110 -164 194 -164h6l-18 -86h-29c-108 0 -188.333 11.167 -241 33.5
s-95 74.5 -127 156.5l-199 506l-211 -147l-67 -324c-6 -29.333 -9 -48.333 -9 -57c0 -54.667 49.333 -82 148 -82h26l-18 -86h-596z" />
    <glyph glyph-name="L" unicode="L" horiz-adv-x="1276" 
d="M-23 86h27c64 0 110 12.5 138 37.5s47.667 61.5 59 109.5l213 1004c5.33301 25.333 8 44.333 8 57c0 54.667 -49.333 82 -148 82h-26l18 86h596l-18 -86h-27c-64.667 0 -111 -11.5 -139 -34.5s-47 -57.833 -57 -104.5l-242 -1135h403c104.667 0 177.667 61.667 219 185
l54 153h106l-106 -440h-1096z" />
    <glyph glyph-name="M" unicode="M" horiz-adv-x="1921" 
d="M1178 0l18.002 85.999h6c58 0 98.667 10.833 122 32.5s40.666 53.834 51.999 96.501l234 1094l-748 -1309h-110l-199 1309l-229 -1084c-6 -28.667 -9 -47.667 -9 -57c0 -54.667 49.333 -82 148 -82h26l-18 -86h-512l18 86h27c68 0 115.167 12 141.5 36
s44.166 57.667 53.499 101l215 1014c5.33301 25.333 8 44.333 8 57c0 54.667 -49.333 82 -148 82h-26l18 86h465l174 -1167l670 1167h457l-19 -86h-26c-65.333 0 -112.333 -12.5 -141 -37.5s-48 -61.5 -58 -109.5l-213 -1004c-5.33301 -25.333 -8 -44.333 -8 -57
c0 -54.667 49 -82 147 -82h27l-19 -86h-544z" />
    <glyph glyph-name="N" unicode="N" horiz-adv-x="1563" 
d="M1327 1237c5.33301 25.333 7.99902 44.333 7.99902 57c0 54.667 -49 82 -147 82h-27l19 86h514l-19 -86h-26c-65.333 0 -112.166 -12.5 -140.499 -37.5s-47.833 -61.5 -58.5 -109.5l-260 -1229h-133l-527 1200l-206 -975c-6 -28.667 -9 -47.667 -9 -57
c0 -54.667 49.333 -82 148 -82h26l-18 -86h-512l18 86h27c64 0 110 12.5 138 37.5s47.667 61.5 59 109.5l213 1004c5.33301 25.333 8 44.333 8 57c0 54.667 -49.333 82 -148 82h-26l18 86h373l496 -1130z" />
    <glyph glyph-name="O" unicode="O" horiz-adv-x="1520" 
d="M926 1485c158.667 0 286.667 -49.333 384 -148s146 -237 146 -415c0 -234 -76 -450 -228 -648s-347 -297 -585 -297c-162 0 -292 51.167 -390 153.5s-147 240.5 -147 414.5c0 234.667 76.667 450 230 646s350 294 590 294zM655 90c170 0 308.501 94.167 415.501 282.5
s160.5 389.833 160.5 604.5c0 127.333 -28.167 225.333 -84.5 294s-135.5 103 -237.5 103c-170.667 0 -309.834 -94.5 -417.501 -283.5s-161.5 -390.167 -161.5 -603.5c0 -128 29 -226.167 87 -294.5s137.333 -102.5 238 -102.5z" />
    <glyph glyph-name="P" unicode="P" horiz-adv-x="1270" 
d="M-41 0l18 85.998h27c64 0 110.333 12.333 139 37s48 61.334 58 110.001l213 1004c5.33301 25.333 8 44.333 8 57c0 54.667 -49.333 82 -148 82h-26l18 86h525c148 0 262.667 -34.333 344 -103s122 -166 122 -292c0 -155.333 -52.167 -277.166 -156.5 -365.499
s-260.833 -132.5 -469.5 -132.5h-152l-73 -344c-6 -28 -9 -47 -9 -57c0 -54.667 49.333 -82 148 -82h67l-18 -86h-635zM500 665.998h108c288 0 432 133 432 399c0 199.333 -99.667 299 -299 299h-94z" />
    <glyph glyph-name="Q" unicode="Q" horiz-adv-x="1520" 
d="M752 -14c6 -122 26.5 -210.5 61.5 -265.5s88.167 -82.5 159.5 -82.5c49.333 0 95.666 6 138.999 18l14 -86c-68.667 -22 -136 -33 -202 -33c-251.333 0 -382.666 150.333 -393.999 451c-132.667 22.667 -236.5 83.667 -311.5 183s-112.5 224 -112.5 374
c0 234.667 76.667 450 230 646s350 294 590 294c158.667 0 286.667 -49.333 384 -148s146 -237 146 -415c0 -207.333 -63.667 -406.833 -191 -598.5s-298.333 -304.167 -513 -337.5zM655 90c170 0 308.501 94.167 415.501 282.5s160.5 389.833 160.5 604.5
c0 127.333 -28.167 225.333 -84.5 294s-135.5 103 -237.5 103c-170.667 0 -309.834 -94.5 -417.501 -283.5s-161.5 -390.167 -161.5 -603.5c0 -128 29 -226.167 87 -294.5s137.333 -102.5 238 -102.5z" />
    <glyph glyph-name="R" unicode="R" horiz-adv-x="1325" 
d="M461 645l-89.999 -420c-6 -28 -9 -47 -9 -57c0 -54.667 49.333 -82 148 -82h68l-19 -86h-635l19 86h26c68 0 115.167 12 141.5 36s44.166 57.667 53.499 101l215 1014c5.33301 25.333 8 44.333 8 57c0 54.667 -49 82 -147 82h-27l18 86h537c312.667 0 469 -116 469 -348
c0 -225.333 -126.333 -368 -379 -428l148 -438c24 -70 48.333 -114.5 73 -133.5s56.334 -28.5 95.001 -28.5h16l-16 -86h-27c-117.333 0 -200.333 15.5 -249 46.5s-87.334 95.5 -116.001 193.5l-118 405h-203zM481.001 741h158c122 0 216 31.167 282 93.5s99 151.5 99 267.5
c0 90.667 -20.167 157 -60.5 199s-109.5 63 -207.5 63h-140z" />
    <glyph glyph-name="S" unicode="S" horiz-adv-x="1114" 
d="M172 428c0 -104.667 27.666 -188.832 82.999 -252.499s131.333 -95.5 228 -95.5c95.333 0 171.166 23.667 227.499 71s84.5 111.666 84.5 192.999c0 64.667 -16.167 119.334 -48.5 164.001s-102.166 97.334 -209.499 158.001
c-109.333 63.333 -185.166 128.333 -227.499 195s-63.5 142 -63.5 226c0 118 44.667 213.5 134 286.5s210.333 109.5 363 109.5c118.667 0 213.334 -20.667 284.001 -62s106 -94.333 106 -159c0 -94.667 -60.333 -142 -181 -142c0 80 -19 143.333 -57 190s-94 70 -168 70
c-81.333 0 -148 -23.333 -200 -70s-78 -109.334 -78 -188.001c0 -58 13.833 -108.167 41.5 -150.5s98.167 -96.5 211.5 -162.5c107.333 -62.667 184.833 -125 232.5 -187s71.5 -132.667 71.5 -212c0 -135.333 -47.333 -240.833 -142 -316.5s-226.334 -113.5 -395.001 -113.5
c-139.333 0 -250 27.5 -332 82.5s-123 124.833 -123 209.5c0 47.333 14.833 85.166 44.5 113.499s67.5 42.5 113.5 42.5z" />
    <glyph glyph-name="T" unicode="T" horiz-adv-x="1255" 
d="M657 225c-5.33301 -25.333 -8.00195 -44.333 -8.00195 -57c0 -54.667 49.333 -82 148 -82h47l-19 -86h-637l19 86h47c68.667 0 116.334 11.833 143.001 35.5s44.667 57.5 54 101.5l241 1137h-196c-97.333 0 -165.666 -56 -204.999 -168l-29 -88h-106l86 358h1153
l-66 -358h-106c6.66699 53.333 10 95 10 125c0 87.333 -45 131 -135 131h-199z" />
    <glyph glyph-name="U" unicode="U" horiz-adv-x="1495" 
d="M205 1376l17.998 86h596l-16 -86h-27c-64 0 -110.667 -12.167 -140 -36.5s-49.666 -61.166 -60.999 -110.499l-153 -723c-16.667 -78.667 -25 -142.334 -25 -191.001c0 -142 98.333 -213 295 -213c110.667 0 198.334 24.667 263.001 74s109.667 131.333 135 246l174 815
c5.33301 24.667 8 43.667 8 57c0 54.667 -49.333 82 -148 82h-26l18 86h514l-16 -86h-27c-64 0 -110.667 -12.167 -140 -36.5s-49.666 -61.166 -60.999 -110.499l-172 -811c-62 -292 -246 -438 -552 -438c-150.667 0 -265.834 30.667 -345.501 92
s-119.5 148.666 -119.5 261.999c0 55.333 7.33301 116 22 182l152 721c5.33301 25.333 8 44.333 8 57c0 54.667 -49.333 82 -148 82h-26z" />
    <glyph glyph-name="V" unicode="V" horiz-adv-x="1382" 
d="M639 201c50.667 118 106 229.997 166 335.997l364 651c26 46.667 39 85 39 115c0 48.667 -38 73 -114 73h-47l16 86h506l-19 -86h-39c-46 0 -80.5 -11.667 -103.5 -35s-51.167 -64.666 -84.5 -123.999l-682 -1217h-149l-175 1268
c-5.33301 40.667 -16.5 68.834 -33.5 84.501s-46.5 23.5 -88.5 23.5h-27l18 86h557l-16 -86h-47c-44 0 -79.667 -9.16699 -107 -27.5s-41 -43.833 -41 -76.5c0 -23.333 1.66699 -46.666 5 -69.999l81 -665c14 -114.667 21 -226.667 21 -336z" />
    <glyph glyph-name="W" unicode="W" horiz-adv-x="2140" 
d="M1915 1188c26 52 39 90.3301 39 114.997c0 48.667 -38.333 73 -115 73h-49l16 86h500l-18 -86h-39c-44 0 -78.5 -10.667 -103.5 -32s-53.5 -63.666 -85.5 -126.999l-604 -1217h-188l-92 1135l-551 -1135h-187l-106 1268c-3.33301 36.667 -13.333 63.834 -30 81.501
s-47.667 26.5 -93 26.5h-27l19 86h557l-19 -86h-47c-98 0 -147 -34.667 -147 -104c0 -28 1.33301 -51.333 4 -70l49 -655c9.33301 -124.667 14 -240 14 -346c57.333 134.667 113.333 257.334 168 368.001l430 879h148l67 -887c10 -134 13.667 -254 11 -360
c60 139.333 111 251.333 153 336z" />
    <glyph glyph-name="X" unicode="X" horiz-adv-x="1352" 
d="M1458 1376h-18c-37.333 0 -70.833 -10 -100.5 -30s-73.5 -61 -131.5 -123l-387 -428l246 -600c30 -72.667 77 -109 141 -109h27l-18 -86h-553l18 86h23c40.667 0 72.667 6.83301 96 20.5s35 30.834 35 51.501c0 28 -13 75 -39 141l-133 326l-306 -340
c-54.667 -60.667 -82 -108.667 -82 -144c0 -36.667 40.333 -55 121 -55h6l-18 -86h-485l18 86h8c44.667 0 84.5 11.667 119.5 35s75.833 60.666 122.5 111.999l453 494l-220 545c-28 69.333 -81 104 -159 104h-27l18 86h555l-18 -86h-47c-64 0 -96 -19 -96 -57
c0 -19.333 12.333 -60.333 37 -123l116 -299l256 295c52 60 78 104.333 78 133c0 34 -32.667 51 -98 51h-6l18 86h449z" />
    <glyph glyph-name="Y" unicode="Y" horiz-adv-x="1280" 
d="M729 1462l-17.999 -85.998h-103c-56 0 -84 -18.333 -84 -55c0 -26.667 9 -66.334 27 -119.001l92 -274c32.667 -97.333 51 -179.333 55 -246c13.333 25.333 64.666 97 153.999 215l195 260c50 66.667 75 122 75 166c0 35.333 -32.667 53 -98 53h-76l19 86h506l-19 -86
h-39c-26 0 -51.833 -10.5 -77.5 -31.5s-61.834 -62.167 -108.501 -123.5l-477 -625l-80 -371c-5.33301 -24.667 -8 -43.667 -8 -57c0 -54.667 49 -82 147 -82h47l-18 -86h-637l18 86h47c68.667 0 116.334 11.833 143.001 35.5s44.667 57.5 54 101.5l80 377l-238 668
c-15.333 43.333 -30.5 72.166 -45.5 86.499s-40.833 21.5 -77.5 21.5h-26l18 86h553z" />
    <glyph glyph-name="Z" unicode="Z" horiz-adv-x="1239" 
d="M1276 1378l-1032 -1276h547c101.333 0 170 56 206 168l29 88h107l-86 -358h-1082l17 82l1030 1278h-477c-100.667 0 -169 -56 -205 -168l-29 -88h-106l86 358h1011z" />
    <glyph glyph-name="bracketleft" unicode="[" horiz-adv-x="735" 
d="M10 -262l387 1818h457l-18 -86h-88c-64 0 -110.5 -12 -139.5 -36s-48.833 -61 -59.5 -111l-291 -1360c-5.33301 -24.667 -8 -43.667 -8 -57c0 -54.667 49 -82 147 -82h88l-18 -86h-457z" />
    <glyph glyph-name="backslash" unicode="\" horiz-adv-x="590" 
d="M231 1556h119l88 -1804h-121z" />
    <glyph glyph-name="bracketright" unicode="]" horiz-adv-x="737" 
d="M-96 -262l18 85.999h88c64 0 110.333 12.333 139 37s48 61.334 58 110.001l291 1360c5.33301 24.667 8 44 8 58c0 54 -49.333 81 -148 81h-88l19 86h456l-387 -1818h-454z" />
    <glyph glyph-name="asciicircum" unicode="^" 
d="M552 1462h72l431 -917h-137l-330 729l-330 -729h-137z" />
    <glyph glyph-name="underscore" unicode="_" horiz-adv-x="940" 
d="M772 -291h-958l26 121h959z" />
    <glyph glyph-name="grave" unicode="`" horiz-adv-x="1182" 
d="M829 1241c-102.667 100 -190.667 202.332 -264 306.999l6 21h205c40 -103.333 85.667 -203.666 137 -300.999l-6 -27h-78z" />
    <glyph glyph-name="a" unicode="a" horiz-adv-x="1186" 
d="M748 309h-13.001c-98 -219.333 -225.667 -329 -383 -329c-83.333 0 -148.166 32.833 -194.499 98.5s-69.5 157.5 -69.5 275.5c0 188 58.5 362.333 175.5 523s261.833 241 434.5 241c92.667 0 172.667 -24.667 240 -74l90 52h66l-140 -656c-20 -94 -30 -169.667 -30 -227
c0 -69.333 22.333 -104 67 -104c38.667 0 88 17.667 148 53l37 -60c-98 -81.333 -194.333 -122 -289 -122c-106.667 0 -160 56.667 -160 170c0 43.333 7 96.333 21 159zM863.999 952c-31.333 49.333 -83 74 -155 74c-116.667 0 -214.5 -74.167 -293.5 -222.5
s-118.5 -300.833 -118.5 -457.5c0 -158 43 -237 129 -237c68 0 139.333 50.333 214 151s124 210.667 148 330z" />
    <glyph glyph-name="b" unicode="b" horiz-adv-x="1151" 
d="M213 53l-92 -59h-66l271 1272c12 56 18 92 18 108c0 64 -47.667 96 -143 96h-17l19 86h387l-98 -460c-14 -66 -38.667 -156.333 -74 -271h10c100.667 195.333 225.667 293 375 293c81.333 0 145 -31.333 191 -94s69 -154.667 69 -276c0 -190 -58.667 -365.5 -176 -526.5
s-262 -241.5 -434 -241.5c-98 0 -178 24.333 -240 73zM285 145c41.333 -48.667 94.333 -72.998 159 -72.998c118.667 0 216.667 75.667 294 227s116 301.666 116 450.999c0 159.333 -43 239 -129 239c-74.667 0 -147.5 -51.833 -218.5 -155.5
s-115.5 -197.834 -133.5 -282.501z" />
    <glyph glyph-name="c" unicode="c" horiz-adv-x="997" 
d="M821 256c14 -8.66699 21 -25.665 21 -50.998c0 -54.667 -32.167 -105.834 -96.5 -153.501s-150.5 -71.5 -258.5 -71.5c-119.333 0 -215.666 37.667 -288.999 113s-110 178.666 -110 309.999c0 178.667 57.667 342.5 173 491.5s261 223.5 437 223.5
c94 0 167.333 -18.667 220 -56s79 -84 79 -140c0 -41.333 -16.5 -75.666 -49.5 -102.999s-77.167 -41 -132.5 -41c0 72.667 -14 131.167 -42 175.5s-66.667 66.5 -116 66.5c-95.333 0 -178.5 -71.333 -249.5 -214s-106.5 -282.334 -106.5 -419.001
c0 -185.333 75 -278 225 -278c119.333 0 217.666 49 294.999 147z" />
    <glyph glyph-name="d" unicode="d" horiz-adv-x="1186" 
d="M748 309h-13.002c-98 -219.333 -225.667 -329 -383 -329c-83.333 0 -148.166 32.833 -194.499 98.5s-69.5 157.5 -69.5 275.5c0 188 58.5 362.333 175.5 523s261.833 241 434.5 241c76.667 0 143.667 -16.333 201 -49c10.667 62.667 18.334 101 23.001 115l20 98
c9.33301 46 14 76.667 14 92c0 64 -47.667 96 -143 96h-16l18 86h377l-238 -1116c-20 -94 -30 -169.667 -30 -227c0 -69.333 22.333 -104 67 -104c38.667 0 88 17.667 148 53l37 -60c-98 -81.333 -194.333 -122 -289 -122c-106.667 0 -160 56.667 -160 170
c0 43.333 7 96.333 21 159zM863.998 952c-31.333 49.333 -83 74 -155 74c-116.667 0 -214.5 -74.167 -293.5 -222.5s-118.5 -300.833 -118.5 -457.5c0 -158 43 -237 129 -237c68 0 139.333 50.333 214 151s124 210.667 148 330z" />
    <glyph glyph-name="e" unicode="e" horiz-adv-x="1010" 
d="M821 256c14 -8.66699 20.998 -25.6641 20.998 -50.9971c0 -54.667 -32.167 -105.834 -96.5 -153.501s-150.5 -71.5 -258.5 -71.5c-119.333 0 -215.666 37.667 -288.999 113s-110 178.666 -110 309.999c0 178.667 57.667 342.5 173 491.5s261 223.5 437 223.5
c86.667 0 153.834 -20.667 201.501 -62s71.5 -99 71.5 -173c0 -110.667 -57.5 -207 -172.5 -289s-255.5 -123 -421.5 -123h-35c-12 0 -24.333 0.666992 -37 2c-2.66699 -18.667 -4 -47.334 -4 -86.001c0 -185.333 75 -278 225 -278c116.667 0 215 49 295 147z
M323.998 567.003h20c120.667 0 220.167 29.333 298.5 88s117.5 134.667 117.5 228c0 91.333 -39.667 137 -119 137c-66 0 -127.667 -41.5 -185 -124.5s-101.333 -192.5 -132 -328.5z" />
    <glyph glyph-name="f" unicode="f" horiz-adv-x="651" 
d="M719 981h-229.998l-213 -997c-35.333 -164.667 -87 -285.167 -155 -361.5s-164.333 -114.5 -289 -114.5c-38.667 0 -78.334 5.66699 -119.001 17l19 94c34 -9.33301 65.333 -14 94 -14c66 0 118 28.333 156 85s72 154 102 292l215 999h-186l12 74l197 43l22 112
c48 244.667 177.667 367 389 367c87.333 0 153.166 -13.833 197.499 -41.5s66.5 -64.5 66.5 -110.5c0 -88.667 -56.667 -133 -170 -133c0 127.333 -34.667 191 -104 191c-50 0 -88.833 -20.667 -116.5 -62s-49.5 -105.333 -65.5 -192l-27 -131h227z" />
    <glyph glyph-name="g" unicode="g" horiz-adv-x="1139" 
d="M901 1053c64.667 96.667 138.335 145.002 221.002 145.002c68.667 0 103 -31.333 103 -94c0 -84.667 -40.333 -127 -121 -127c0 49.333 -19 74 -57 74c-26.667 0 -60.334 -15.667 -101.001 -47c30 -42.667 45 -95.334 45 -158.001c0 -114.667 -43 -219.834 -129 -315.501
s-199.333 -143.5 -340 -143.5c-31.333 0 -53 1.33301 -65 4c-97.333 -39.333 -146 -82.333 -146 -129c0 -34 35 -54.333 105 -61l196 -21c212 -22.667 318 -112 318 -268c0 -127.333 -48 -226.5 -144 -297.5s-233 -106.5 -411 -106.5c-298 0 -447 89 -447 267
c0 73.333 29.833 135.833 89.5 187.5s141.167 87.5 244.5 107.5c-65.333 32 -98 79 -98 141c0 42 13.5 77.667 40.5 107s78.167 63.333 153.5 102c-95.333 44.667 -143 125.334 -143 242.001c0 115.333 43.5 220.166 130.5 314.499s201.833 141.5 344.5 141.5
c87.333 0 157.666 -21.667 210.999 -65zM545.001 485.002c78 0 140.833 38.833 188.5 116.5s71.5 162.5 71.5 254.5c0 112 -47 168 -141 168c-80 0 -143.5 -39.167 -190.5 -117.5s-70.5 -162.833 -70.5 -253.5c0 -112 47.333 -168 142 -168zM561.001 6.00195l-199 19.002
c-10 0.666992 -39.5 -6 -88.5 -20s-91.167 -40 -126.5 -78s-53 -84.667 -53 -140c0 -118.667 96.333 -178 289 -178c120 0 211.5 22.167 274.5 66.5s94.5 104.166 94.5 179.499c0 89.333 -63.667 139.666 -191 150.999z" />
    <glyph glyph-name="h" unicode="h" horiz-adv-x="1227" 
d="M471 840c113.333 184 239.666 275.998 378.999 275.998c146 0 219 -75.667 219 -227c0 -43.333 -12.333 -118.333 -37 -225l-53 -242c-18 -82 -27 -153.667 -27 -215c0 -65.333 24 -98 72 -98c39.333 0 83 15.667 131 47l37 -60
c-89.333 -77.333 -172.666 -116 -249.999 -116c-56.667 0 -101.834 18.333 -135.501 55s-50.5 86.334 -50.5 149.001s13 155 39 277l47 212c20 82.667 30 146.334 30 191.001c0 80.667 -31.333 121 -94 121c-76 0 -154.167 -51.833 -234.5 -155.5
s-131.166 -205.5 -152.499 -305.5l-110 -524h-191l266 1266c12.667 60 19 96 19 108c0 64 -48 96 -144 96h-16l18 86h377l-80 -376c-24 -112 -51 -225.333 -81 -340h22z" />
    <glyph glyph-name="i" unicode="i" horiz-adv-x="623" 
d="M459 1303c-76.667 0 -114.999 37.334 -114.999 112.001c0 43.333 11.167 78.166 33.5 104.499s52.166 39.5 89.499 39.5c76.667 0 115 -37.667 115 -113c0 -46.667 -11.5 -82.167 -34.5 -106.5s-52.5 -36.5 -88.5 -36.5zM127.001 1012l18 86.001h367l-139 -658
c-20.667 -98 -31 -173.667 -31 -227c0 -69.333 22.667 -104 68 -104c39.333 0 88.333 17.667 147 53l37 -60c-94.667 -81.333 -187 -122 -277 -122c-50.667 0 -91.667 18.333 -123 55s-47 83 -47 139c0 61.333 15.333 168.666 46 321.999l79 376c4.66699 22 7 40 7 54
c0 57.333 -41.667 86 -125 86h-27z" />
    <glyph glyph-name="j" unicode="j" horiz-adv-x="596" 
d="M461 1303c-76.667 0 -114.999 37.334 -114.999 112.001c0 43.333 11.167 78.166 33.5 104.499s52.166 39.5 89.499 39.5c76.667 0 115 -37.667 115 -113c0 -46.667 -11.5 -82.167 -34.5 -106.5s-52.5 -36.5 -88.5 -36.5zM-286.999 -474.999l19.001 94
c34 -9.33301 65.333 -14 94 -14c68.667 0 122.5 30.5 161.5 91.5s71.833 156.833 98.5 287.5l188 888c4.66699 22 7 40 7 54c0 57.333 -41.667 86 -125 86h-27l18 86h367l-235 -1114c-34.667 -162.667 -86.5 -282.667 -155.5 -360s-166.167 -116 -291.5 -116
c-38.667 0 -78.334 5.66699 -119.001 17z" />
    <glyph glyph-name="k" unicode="k" horiz-adv-x="1165" 
d="M694 786c100.667 87.333 150.999 151.668 150.999 193.001c0 20.667 -30.333 31 -91 31l18 86h453l-19 -86c-79.333 0 -189 -63.667 -329 -191l-185 -170l187 -405c52.667 -114.667 122 -172 208 -172l-18 -86c-113.333 0 -196.666 13.167 -249.999 39.5
s-98.333 83.5 -135 171.5l-133 327l-186 -118l-84 -406h-191l266 1266c12.667 60 19 96 19 108c0 64 -48 96 -144 96h-16l18 86h377l-80 -376c-73.333 -344.667 -126.333 -569.334 -159 -674.001z" />
    <glyph glyph-name="l" unicode="l" horiz-adv-x="623" 
d="M207 1470l18 85.999h387l-237 -1116c-20.667 -97.333 -31 -173 -31 -227c0 -69.333 22.667 -104 68 -104c39.333 0 88.333 17.667 147 53l37 -60c-94.667 -81.333 -187 -122 -277 -122c-49.333 0 -89.833 18 -121.5 54s-47.5 82.667 -47.5 140c0 64.667 15 172 45 322
l167 786c8.66699 40.667 13 71.334 13 92.001c0 64 -48 96 -144 96h-24z" />
    <glyph glyph-name="m" unicode="m" horiz-adv-x="1835" 
d="M920 0l-195 -0.000976562c0 30.667 8.66699 101.5 26 212.5s32 193.833 44 248.5l47 212c20 82.667 30 146.334 30 191.001c0 80.667 -31.333 121 -94 121c-76 0 -154.167 -51.833 -234.5 -155.5s-131.166 -205.5 -152.499 -305.5l-110 -524h-191l172 823
c8 38 12 68.667 12 92c0 64.667 -47.667 97 -143 97h-16l18 86h379l-55 -258h20c110.667 184 235 276 373 276c146 0 219 -75.667 219 -227c0 -16.667 -1.33301 -33 -4 -49h20c111.333 184 235.666 276 372.999 276c146 0 219 -75.667 219 -227
c0 -43.333 -12.333 -118.333 -37 -225l-53 -242c-17.333 -79.333 -26 -151 -26 -215c0 -65.333 23.667 -98 71 -98c39.333 0 83 15.667 131 47l37 -60c-86.667 -77.333 -170 -116 -250 -116c-56 0 -101 18.333 -135 55s-51 86.334 -51 149.001s13 155 39 277l35 160
c28.667 131.333 43 212.333 43 243c0 80.667 -31.667 121 -95 121c-70 0 -142.333 -44.833 -217 -134.5s-127 -183.5 -157 -281.5l-33 -147c-8.66699 -37.333 -20.667 -110.333 -36 -219s-23 -176.334 -23 -203.001z" />
    <glyph glyph-name="n" unicode="n" horiz-adv-x="1227" 
d="M281 0l-190.999 -0.00195312l172 823c8 38 12 68.667 12 92c0 64.667 -47.667 97 -143 97h-16l18 86h379l-55 -258h20c110.667 184 235 276 373 276c146 0 219 -75.667 219 -227c0 -43.333 -12.333 -118.333 -37 -225l-53 -242c-18 -82 -27 -153.667 -27 -215
c0 -65.333 24 -98 72 -98c39.333 0 83 15.667 131 47l37 -60c-89.333 -77.333 -172.666 -116 -249.999 -116c-56.667 0 -101.834 18.333 -135.501 55s-50.5 86.334 -50.5 149.001s13 155 39 277l47 212c20 82.667 30 146.334 30 191.001c0 80.667 -31.333 121 -94 121
c-76 0 -153.833 -51.333 -233.5 -154s-130.834 -205 -153.501 -307z" />
    <glyph glyph-name="o" unicode="o" horiz-adv-x="1176" 
d="M698 1118c120.667 0 215.665 -36.334 284.998 -109.001s104 -177.667 104 -315c0 -182 -55.667 -346.5 -167 -493.5s-257.666 -220.5 -438.999 -220.5c-123.333 0 -219.666 37.333 -288.999 112s-104 178.334 -104 311.001c0 184 56.167 349.167 168.5 495.5
s259.5 219.5 441.5 219.5zM503.998 79.999c112.667 0 202.5 66.832 269.5 200.499s100.5 281.834 100.5 444.501c0 190 -66.667 285 -200 285c-111.333 0 -201.333 -67 -270 -201s-103 -283 -103 -447c0 -188 67.667 -282 203 -282z" />
    <glyph glyph-name="p" unicode="p" horiz-adv-x="1182" 
d="M389 -406l-18 -86.001h-385l272 1299c12 57.333 18 93.333 18 108c0 64.667 -47.667 97 -143 97h-16l18 86h363l-49 -273h10c98.667 195.333 223.667 293 375 293c83.333 0 147.5 -31.667 192.5 -95s67.5 -155 67.5 -275c0 -183.333 -57.167 -357.166 -171.5 -521.499
s-260.833 -246.5 -439.5 -246.5c-78 0 -144.667 15.667 -200 47c-6 -44 -11.667 -77 -17 -99l-28 -125c-12.667 -56.667 -19 -94.667 -19 -114c0 -63.333 47.667 -95 143 -95h27zM315 144.999c44 -48.667 98 -73 162 -73c114 0 210.5 74.5 289.5 223.5
s118.5 300.5 118.5 454.5c0 159.333 -43 239 -129 239c-70.667 0 -142 -49.167 -214 -147.5s-119.667 -200.5 -143 -306.5z" />
    <glyph glyph-name="q" unicode="q" horiz-adv-x="1147" 
d="M735 309c-99.333 -219.333 -226.998 -329 -382.998 -329c-82.667 0 -147.334 32.833 -194.001 98.5s-70 157.5 -70 275.5c0 188 58.5 362.333 175.5 523s261.833 241 434.5 241c85.333 0 161.333 -18.333 228 -55l50 28c32 18 49.333 27 52 27h72l-283 -1335
c-8 -38 -12 -68.667 -12 -92c0 -64.667 47 -97 141 -97h17l-19 -86h-373l86 410c5.33301 26 35.666 156.333 90.999 391h-13zM864.002 952c-30 49.333 -81.667 74 -155 74c-118 0 -216.167 -75.333 -294.5 -226s-117.5 -302.667 -117.5 -456c0 -156.667 43 -235 129 -235
c67.333 0 138 49.5 212 148.5s124 209.833 150 332.5z" />
    <glyph glyph-name="r" unicode="r" horiz-adv-x="958" 
d="M799 821c0 108 -27.333 162 -82 162c-63.333 0 -130.5 -62.333 -201.5 -187s-123.5 -265.667 -157.5 -423l-77 -373h-191l172 823c8 38 12 68.667 12 92c0 64.667 -54.333 97 -163 97h-17l19 86h362l-43 -295h21c54.667 122 108.667 205 162 249s115.333 66 186 66
c112 0 168 -47 168 -141c0 -104 -56.667 -156 -170 -156z" />
    <glyph glyph-name="s" unicode="s" horiz-adv-x="950" 
d="M741 795c0 68.667 -16.167 123.663 -48.5 164.996s-77.5 62 -135.5 62c-61.333 0 -109.833 -16.5 -145.5 -49.5s-53.5 -75.167 -53.5 -126.5c0 -45.333 17 -84 51 -116s86.667 -63.667 158 -95c164 -73.333 246 -179.333 246 -318c0 -100.667 -38.667 -182 -116 -244
s-180 -93 -308 -93c-103.333 0 -185.5 20.833 -246.5 62.5s-91.5 97.834 -91.5 168.501c0 44 12.167 77.5 36.5 100.5s55.166 34.5 92.499 34.5c0 -84.667 20.5 -150.5 61.5 -197.5s98.5 -70.5 172.5 -70.5c147.333 0 221 63.333 221 190
c0 48.667 -15.667 89.834 -47 123.501s-84.666 67.834 -159.999 102.501c-98 46.667 -163.833 94.834 -197.5 144.501s-50.5 107.167 -50.5 172.5c0 89.333 36.5 162.5 109.5 219.5s168.167 85.5 285.5 85.5c100.667 0 179.167 -18.667 235.5 -56s84.5 -83.333 84.5 -138
c0 -84.667 -51.333 -127 -154 -127z" />
    <glyph glyph-name="t" unicode="t" horiz-adv-x="754" 
d="M616 154l35.001 -75.998c-92 -65.333 -184 -98 -276 -98c-148.667 0 -223 79.667 -223 239c0 51.333 6.66699 108.666 20 171.999l125 590h-156l19 82c133.333 0 237.666 95.667 312.999 287h94l-53 -252h248l-25 -117h-248l-124 -584
c-16.667 -78.667 -25 -137.334 -25 -176.001c0 -74.667 36.333 -112 109 -112c55.333 0 111 15 167 45z" />
    <glyph glyph-name="u" unicode="u" horiz-adv-x="1227" 
d="M135 1098l380.999 0.00195312l-135 -613c-27.333 -124 -41 -206.333 -41 -247c0 -83.333 33.333 -125 100 -125c70 0 145.5 50.5 226.5 151.5s133.833 208.833 158.5 323.5l107 510h198l-141 -658c-20.667 -96.667 -31 -172.334 -31 -227.001
c0 -69.333 22.667 -104 68 -104c38.667 0 82.334 15 131.001 45l37 -60c-86.667 -76 -173.334 -114 -260.001 -114c-51.333 0 -92.833 18.333 -124.5 55s-47.5 83 -47.5 139c0 35.333 3.33301 75.666 10 120.999h-16c-74 -122 -140.167 -204.667 -198.5 -248
s-124.166 -65 -197.499 -65c-146 0 -219 75.667 -219 227c0 43.333 12.333 118.333 37 225l80 359c12 54 18 94.667 18 122c0 64.667 -47.667 97 -143 97h-16z" />
    <glyph glyph-name="v" unicode="v" horiz-adv-x="1102" 
d="M197 903c-11.333 72.667 -58.668 109 -142.001 109h-20l16 86h307l95 -606c24 -154.667 39.667 -275.667 47 -363h6c102 98 190.333 212.5 265 343.5s112 236.167 112 315.5c0 48 -11.667 86 -35 114s-54 42 -92 42c0 49.333 13.333 89 40 119s59.667 45 99 45
c92.667 0 139 -63.333 139 -190c0 -124 -47.167 -269.167 -141.5 -435.5s-217.166 -326.5 -368.499 -480.5l-184 -20z" />
    <glyph glyph-name="w" unicode="w" horiz-adv-x="1677" 
d="M246 -18l-15 881.997c-0.666992 48 -10.167 84.667 -28.5 110s-53.833 38 -106.5 38h-20l28 86h308c4 -288 6 -599.333 6 -934h8c178 312.667 330.333 617.667 457 915l170 8c28.667 -359.333 43 -671.666 43 -936.999h14c111.333 136.667 203.333 271.834 276 405.501
s109 239.834 109 318.501c0 62.667 -29.333 103.667 -88 123c12 80.667 52.333 121 121 121c72 0 108 -51 108 -153c0 -196.667 -171.333 -517.667 -514 -963l-202 -22l-31 886c-62 -147.333 -206 -434 -432 -860z" />
    <glyph glyph-name="x" unicode="x" horiz-adv-x="1118" 
d="M-41 0l23 85.999h26c37.333 0 69.833 8.5 97.5 25.5s66.167 55.5 115.5 115.5l262 318l-133 319c-26 63.333 -47.5 103.833 -64.5 121.5s-44.5 26.5 -82.5 26.5h-27l17 86h272l156 -414l272 414h262l-33 -86h-26c-40 0 -73.5 -9.66699 -100.5 -29s-64.5 -59 -112.5 -119
l-215 -276l141 -355c24 -61.333 44.5 -101.166 61.5 -119.499s45.5 -27.5 85.5 -27.5h27l-16 -86h-275l-166 451l-307 -451h-260z" />
    <glyph glyph-name="y" unicode="y" horiz-adv-x="1081" 
d="M164 903c-12 40 -28.332 68.166 -48.999 84.499s-51.334 24.5 -92.001 24.5h-21l16 86h299l160 -553c49.333 -171.333 78 -295 86 -371h6c184.667 280.667 277 507.334 277 680.001c0 74 -33.667 111 -101 111c0 46 13.333 82.667 40 110s58 41 94 41
c92.667 0 139 -57.333 139 -172c0 -164.667 -92 -396.167 -276 -694.5s-331.5 -496.5 -442.5 -594.5s-257.167 -147 -438.5 -147c-72 0 -136.333 12.333 -193 37l31 103c48 -15.333 101.333 -23 160 -23c195.333 0 387 124.333 575 373z" />
    <glyph glyph-name="z" unicode="z" horiz-adv-x="1047" 
d="M616 117c32.667 0 62.5 10.332 89.5 30.999s55.5 66.334 85.5 137.001l20 47h86l-80 -332h-819l16 82l697 899h-260c-47.333 0 -83.833 -11.333 -109.5 -34s-53.5 -66.667 -83.5 -132l-4 -8h-86l82 291h717l-17 -84l-698 -897h364z" />
    <glyph glyph-name="braceleft" unicode="{" horiz-adv-x="877" 
d="M676 -262c-92.667 0 -165 25.667 -217 77s-78 124 -78 218v356c0 140 -80.667 212.333 -242 217v86c161.333 3.33301 242 75 242 215v357c0 194.667 98.333 292 295 292h135v-88h-61c-112 0 -168 -71.667 -168 -215v-350c0 -142.667 -76 -226.667 -228 -252v-2
c152 -26 228 -110.667 228 -254v-354c0 -143.333 56 -215 168 -215h61v-88h-135z" />
    <glyph glyph-name="bar" unicode="|" 
d="M649 -492h-123v2048h123v-2048z" />
    <glyph glyph-name="braceright" unicode="}" horiz-adv-x="877" 
d="M129 -174h61c112 0 168 71.667 168 215v354c0 143.333 76 228 228 254v2c-152 25.333 -228 109.333 -228 252v350c0 143.333 -56 215 -168 215h-61v88h135c196.667 0 295 -97.333 295 -292v-357c0 -140 80.667 -211.667 242 -215v-86
c-161.333 -4.66699 -242 -77 -242 -217v-356c0 -94 -26 -166.667 -78 -218s-124.333 -77 -217 -77h-135v88z" />
    <glyph glyph-name="asciitilde" unicode="~" horiz-adv-x="1149" 
d="M250 551l-121.001 0.000976562c18.667 238.667 104.667 358 258 358c62.667 0 145.334 -45 248.001 -135c71.333 -68 127.333 -102 168 -102c38 0 66 20.667 84 62s31.667 99.666 41 174.999h123c-26 -238.667 -112 -358 -258 -358c-64.667 0 -144 43 -238 129
c-78.667 72 -137.334 108 -176.001 108c-40 0 -69.667 -19.5 -89 -58.5s-32.666 -98.5 -39.999 -178.5z" />
    <glyph glyph-name="nonbreakingspace" unicode="&#xa0;" horiz-adv-x="532" 
 />
    <glyph glyph-name="exclamdown" unicode="&#xa1;" horiz-adv-x="682" 
d="M420 1112c84.667 0 127 -41.667 127 -125c0 -47.333 -12.167 -85.5 -36.5 -114.5s-57.166 -43.5 -98.499 -43.5c-84.667 0 -127 41.667 -127 125c0 49.333 12.167 88 36.5 116s57.166 42 98.499 42zM260 -367h-237l294 1051h95z" />
    <glyph glyph-name="cent" unicode="&#xa2;" 
d="M496 182c-104 17.333 -183.998 62.667 -239.998 136s-84 167.333 -84 282c0 166 51.667 322.167 155 468.5s238.666 227.833 405.999 244.5l33 149h102l-32 -151c77.333 -7.33301 137.5 -28.833 180.5 -64.5s64.5 -78.5 64.5 -128.5c0 -41.333 -16.5 -75.5 -49.5 -102.5
s-77.167 -40.5 -132.5 -40.5c0 110.667 -29.333 184.334 -88 221.001l-188 -891c112.667 4 206.667 53.333 282 148c14 -10 21 -27.333 21 -52c0 -52.667 -29.333 -102.334 -88 -149.001s-139.334 -72 -242.001 -76l-37 -176h-102zM524.002 319.001l189 893
c-92 -16.667 -169.667 -94 -233 -232s-95 -270 -95 -396c0 -142.667 46.333 -231 139 -265z" />
    <glyph glyph-name="sterling" unicode="&#xa3;" 
d="M530 690c4.66699 -29.333 7 -65.333 7 -108c0 -158 -86 -287.667 -258 -389l2 -9c56 24.667 108.333 37 157 37c40 0 99.667 -13 179 -39c78.667 -26 131.667 -39 159 -39c76 0 144.333 31 205 93l55 -68c-123.333 -125.333 -239.333 -188 -348 -188
c-43.333 0 -106.333 15.333 -189 46s-148.667 46 -198 46c-76 0 -155.333 -20 -238 -60l-28 -14l-37 82l72 41c196.667 112 295 259.333 295 442c0 33.333 -5 75.666 -15 126.999h-227l22 103h189c-18 84 -27 152.667 -27 206c0 150.667 45.167 269 135.5 355
s211.833 129 364.5 129c103.333 0 185.833 -18.667 247.5 -56s92.5 -85.666 92.5 -144.999c0 -108 -56.667 -162 -170 -162c0 173.333 -67 260 -201 260c-92.667 0 -164 -32.167 -214 -96.5s-75 -154.833 -75 -271.5c0 -53.333 9.66699 -126.333 29 -219h348l-22 -103h-312z
" />
    <glyph glyph-name="currency" unicode="&#xa4;" 
d="M283 952l-135.999 135l86 87l134 -136c66 48 139.667 72 221 72c77.333 0 149.666 -24 216.999 -72l137 138l86 -89l-135 -135c48 -66 72 -139 72 -219s-24 -153 -72 -219l135 -135l-84 -86l-137 135c-69.333 -46.667 -142.333 -70 -219 -70
c-82.667 0 -155.667 23.333 -219 70l-136 -135l-86 86l134 135c-45.333 66 -68 139 -68 219c0 82.667 23.333 155.667 70 219zM588.001 471c72 0 133.667 25.833 185 77.5s77 113.167 77 184.5c0 73.333 -25.333 135.666 -76 186.999s-112.667 77 -186 77
c-72 0 -133.333 -25.667 -184 -77s-76 -113.666 -76 -186.999c0 -71.333 25.5 -132.833 76.5 -184.5s112.167 -77.5 183.5 -77.5z" />
    <glyph glyph-name="yen" unicode="&#xa5;" horiz-adv-x="1104" 
d="M582 225c-6 -29.333 -9.00098 -48.3311 -9.00098 -56.998c0 -54.667 49.333 -82 148 -82h47l-18 -86h-629l18 86h47c69.333 0 117.333 12 144 36s44.334 57.667 53.001 101l29 139h-287l20 97h287l31 143h-287l21 96h247l-157 570
c-10.667 38.667 -23.667 66.334 -39 83.001s-43.333 25 -84 25h-6l18 86h479l-18 -86h-4c-46 0 -81 -4.33301 -105 -13s-36 -27.334 -36 -56.001s8 -72.334 24 -131.001l53 -220c23.333 -97.333 37.666 -180.333 42.999 -249c14.667 26 50.334 81.667 107.001 167l170 250
c61.333 90 92 154.333 92 193c0 39.333 -37 59 -111 59h-6l19 86h417l-18 -86h-18c-30.667 0 -56.667 -7.83301 -78 -23.5s-58.333 -60.834 -111 -135.501l-360 -519h254l-21 -96h-286l-31 -143h287l-21 -97h-287z" />
    <glyph glyph-name="brokenbar" unicode="&#xa6;" 
d="M649 737h-123v819h123v-819zM649 -492h-123v820h123v-820z" />
    <glyph glyph-name="section" unicode="&#xa7;" horiz-adv-x="1114" 
d="M170 131c0 -80 22.334 -144.332 67.001 -192.999s105.667 -73 183 -73c83.333 0 150.833 22.167 202.5 66.5s77.5 102.5 77.5 174.5c0 43.333 -17.167 85 -51.5 125s-114.5 94 -240.5 162c-152 82.667 -228 192.667 -228 330c0 110.667 60 203.334 180 278.001
c-32.667 55.333 -49 117 -49 185c0 112 41 201.667 123 269s186.667 101 314 101c95.333 0 173 -20 233 -60s90 -88 90 -144c0 -49.333 -12.333 -85.333 -37 -108s-67.667 -34 -129 -34c0 76.667 -16.5 137.5 -49.5 182.5s-81.167 67.5 -144.5 67.5
c-66.667 0 -123.667 -18.667 -171 -56s-71 -88.333 -71 -153c0 -53.333 13.833 -97.833 41.5 -133.5s103.834 -87.167 228.501 -154.5c166.667 -89.333 250 -195.333 250 -318c0 -114.667 -59.333 -217.667 -178 -309c27.333 -50.667 41 -101.334 41 -152.001
c0 -122 -42.333 -222.5 -127 -301.5s-196.667 -118.5 -336 -118.5c-104.667 0 -188.834 21.167 -252.501 63.5s-95.5 98.5 -95.5 168.5c0 43.333 12.167 76.666 36.5 99.999s55.166 35 92.499 35zM406.001 944.001c-54.667 -40 -81.999 -88.334 -81.999 -145.001
c0 -50.667 16.667 -94 50 -130s95.666 -79.333 186.999 -130c80.667 -44.667 147 -90.667 199 -138c50.667 55.333 76 107.333 76 156c0 82 -70.333 161.333 -211 238c-96.667 52.667 -169.667 102.334 -219 149.001z" />
    <glyph glyph-name="dieresis" unicode="&#xa8;" horiz-adv-x="1182" 
d="M514 1294c-68 0 -102 34.333 -102 103c0 86 36.667 129 110 129c68.667 0 103 -34.333 103 -103c0 -86 -37 -129 -111 -129zM903 1294c-68 0 -102 34.333 -102 103c0 86 36.667 129 110 129c68.667 0 103 -34.333 103 -103c0 -86 -37 -129 -111 -129z" />
    <glyph glyph-name="copyright" unicode="&#xa9;" horiz-adv-x="1731" 
d="M881 1485c206 0 382.999 -73.833 530.999 -221.5s222 -325.167 222 -532.5c0 -206 -73.667 -382.667 -221 -530s-324.666 -221 -531.999 -221c-208 0 -385.333 73.667 -532 221s-220 324 -220 530c0 207.333 73.667 384.833 221 532.5s324.333 221.5 531 221.5z
M880.999 92c176 0 326.833 62.6689 452.5 188.002s188.5 275.666 188.5 450.999c0 176 -62.833 326.833 -188.5 452.5s-276.5 188.5 -452.5 188.5c-176.667 0 -327.334 -63 -452.001 -189s-187 -276.667 -187 -452c0 -174.667 62.333 -324.834 187 -450.501
s275.334 -188.5 452.001 -188.5zM1169 504.002c19.333 -14 29 -35.332 29 -63.999c0 -42.667 -27.833 -80.667 -83.5 -114s-130.167 -50 -223.5 -50c-129.333 0 -230 40 -302 120s-108 192.333 -108 337c0 140 39 250.5 117 331.5s185.333 121.5 322 121.5
c88 0 156.667 -13.333 206 -40s74 -62 74 -106c0 -28.667 -13 -51.834 -39 -69.501s-59.333 -26.5 -100 -26.5c0 104 -48.667 156 -146 156c-177.333 0 -266 -122.333 -266 -367c0 -118 23 -208.833 69 -272.5s112.667 -95.5 200 -95.5c113.333 0 197 46.333 251 139z" />
    <glyph glyph-name="ordfeminine" unicode="&#xaa;" horiz-adv-x="805" 
d="M573 995h-8.00195c-71.333 -142 -158.666 -213 -261.999 -213c-57.333 0 -101.666 20 -132.999 60s-47 95.333 -47 166c0 110.667 39.833 214.667 119.5 312s179.834 146 300.501 146c65.333 0 120 -14.333 164 -43l63 29h45l-96 -379c-14 -55.333 -21 -99 -21 -131
c0 -40.667 13.667 -61 41 -61c23.333 0 52.666 10.667 87.999 32l23 -39c-62 -61.333 -121.333 -92 -178 -92c-75.333 0 -113 34.333 -113 103c0 38 4.66699 74.667 14 110zM628.998 1350c-19.333 27.333 -49.333 41 -90 41c-68 0 -124.667 -41.833 -170 -125.5
s-68 -168.167 -68 -253.5c0 -88.667 23.333 -133 70 -133c36 0 74.5 28.5 115.5 85.5s70.5 117.833 88.5 182.5z" />
    <glyph glyph-name="guillemotleft" unicode="&#xab;" horiz-adv-x="1053" 
d="M139 586l389 356h103l-295 -399l129 -379h-103l-237 356zM510 586l389 356h102l-294 -399l129 -379h-103l-237 356z" />
    <glyph glyph-name="logicalnot" unicode="&#xac;" 
d="M1028 793v-541h-123v420h-755v121h878z" />
    <glyph glyph-name="uni00AD" unicode="&#xad;" horiz-adv-x="635" 
d="M29 481l32 154h533l-33 -154h-532z" />
    <glyph glyph-name="registered" unicode="&#xae;" horiz-adv-x="1731" 
d="M881 1485c206 0 382.999 -73.833 530.999 -221.5s222 -325.167 222 -532.5c0 -206 -73.667 -382.667 -221 -530s-324.666 -221 -531.999 -221c-208 0 -385.333 73.667 -532 221s-220 324 -220 530c0 207.333 73.667 384.833 221 532.5s324.333 221.5 531 221.5z
M880.999 92c176 0 326.833 62.6689 452.5 188.002s188.5 275.666 188.5 450.999c0 176 -62.833 326.833 -188.5 452.5s-276.5 188.5 -452.5 188.5c-176.667 0 -327.334 -63 -452.001 -189s-187 -276.667 -187 -452c0 -174.667 62.333 -324.834 187 -450.501
s275.334 -188.5 452.001 -188.5zM493.999 358.002h26c67.333 0 101 24 101 72v600c0 48 -33.667 72 -101 72h-26v72h368c234.667 0 352 -81.333 352 -244c0 -109.333 -62 -184.333 -186 -225l182 -293c13.333 -22 26.833 -36.5 40.5 -43.5s38.5 -10.5 74.5 -10.5v-69h-217
l-225 381h-109v-240c0 -48 33.333 -72 100 -72h29v-69h-409v69zM773.999 748.002l86 -0.000976562c68.667 0 118 13.333 148 40s45 73.334 45 140.001c0 60.667 -15.333 103.5 -46 128.5s-81.667 37.5 -153 37.5h-80v-346z" />
    <glyph glyph-name="overscore" unicode="&#xaf;" horiz-adv-x="940" 
d="M950 1556h-960v121h960v-121z" />
    <glyph glyph-name="degree" unicode="&#xb0;" horiz-adv-x="819" 
d="M481 1462c85.333 0 158.667 -30.3311 220 -90.998s92 -134 92 -220c0 -84.667 -30.333 -157.334 -91 -218.001s-134.334 -91 -221.001 -91c-85.333 0 -158.166 30.167 -218.499 90.5s-90.5 133.166 -90.5 218.499c0 86.667 30.5 160.167 91.5 220.5
s133.5 90.5 217.5 90.5zM481.001 963.002c52.667 0 97.333 18.333 134 55s55 81 55 133c0 53.333 -18.5 98.333 -55.5 135s-81.5 55 -133.5 55c-50 0 -93.5 -18.167 -130.5 -54.5s-55.5 -81.5 -55.5 -135.5c0 -52 18.5 -96.333 55.5 -133s80.5 -55 130.5 -55z" />
    <glyph glyph-name="plusminus" unicode="&#xb1;" 
d="M649 672v-379h-123v379h-376v121h376v378h123v-378h379v-121h-379zM1028 0h-878v121h878v-121z" />
    <glyph glyph-name="twosuperior" unicode="&#xb2;" horiz-adv-x="819" 
d="M41 586l10 61.0029l318 262c74 60.667 129.333 119.167 166 175.5s55 122.166 55 197.499c0 79.333 -34.333 119 -103 119c-41.333 0 -77.166 -17.833 -107.499 -53.5s-49.5 -82.834 -57.5 -141.501c-41.333 0 -73.666 9.16699 -96.999 27.5s-35 42.166 -35 71.499
c0 51.333 28.167 93.833 84.5 127.5s132.166 50.5 227.499 50.5c82.667 0 148 -18 196 -54s72 -83 72 -141c0 -64.667 -20.833 -125 -62.5 -181s-115.167 -126 -220.5 -210l-245 -195h282c51.333 0 87.666 28 108.999 84l16 43h70l-57 -243h-621z" />
    <glyph glyph-name="threesuperior" unicode="&#xb3;" horiz-adv-x="819" 
d="M197 842c0 -50 15.001 -91.834 45.001 -125.501s70 -50.5 120 -50.5c130 0 195 60.667 195 182c0 46 -16.333 83 -49 111s-78.334 42 -137.001 42h-68l16 84h68c64.667 0 118.667 20.667 162 62s65 94 65 158s-31.333 96 -94 96c-90.667 0 -148 -59.333 -172 -178
c-90 0 -135 28.667 -135 86c0 48.667 28.167 89.834 84.5 123.501s132.5 50.5 228.5 50.5c87.333 0 155.333 -17 204 -51s73 -79.333 73 -136c0 -126 -87.333 -206.333 -262 -241l-2 -11c137.333 -18 206 -80.667 206 -188c0 -88.667 -35.833 -158 -107.5 -208
s-168.167 -75 -289.5 -75c-86.667 0 -153 14.333 -199 43s-69 67 -69 115c0 74 39 111 117 111z" />
    <glyph glyph-name="acute" unicode="&#xb4;" horiz-adv-x="1182" 
d="M508 1268c78 90 151.001 190.333 219.001 301h219l-6 -21c-104.667 -122 -223.334 -224.333 -356.001 -307h-82z" />
    <glyph glyph-name="mu" unicode="&#xb5;" horiz-adv-x="1237" 
d="M223 100c-22 -113.333 -33.001 -195.668 -33.001 -247.001c0 -99.333 37.667 -154.666 113 -165.999c-12.667 -119.333 -70.667 -179 -174 -179c-88.667 0 -133 49.333 -133 148c0 60.667 20.333 164 61 310c58 209.333 99.667 374.333 125 495l135 637h193l-135 -641
c-15.333 -72.667 -23 -135.667 -23 -189c0 -104.667 50 -157 150 -157c70.667 0 133.334 30 188.001 90s92.334 140.333 113.001 241l139 656h193l-164 -766c-16.667 -78 -25 -130.667 -25 -158c0 -43.333 20 -65 60 -65c29.333 0 66.666 11.333 111.999 34l35 -69
c-90.667 -62.667 -170 -94 -238 -94c-96.667 0 -147.667 65.333 -153 196h-10c-88.667 -130.667 -187.667 -196 -297 -196c-112.667 0 -190 40 -232 120z" />
    <glyph glyph-name="paragraph" unicode="&#xb6;" horiz-adv-x="1264" 
d="M877 1452l-195 0.000976562v-1679h-320v86h27c66 0 110.5 12.667 133.5 38s34.5 61.666 34.5 108.999v785h-145c-209.333 0 -314 133.667 -314 401c0 242.667 106 364 318 364h780v-86h-27c-65.333 0 -109.666 -12.5 -132.999 -37.5s-35 -61.5 -35 -109.5v-1317
c0 -48 11.667 -84.5 35 -109.5s67.666 -37.5 132.999 -37.5h27v-86h-319v1679z" />
    <glyph glyph-name="periodcentered" unicode="&#xb7;" horiz-adv-x="586" 
d="M315 588c-84.667 0 -127 41.667 -127 125c0 47.333 12.167 85.333 36.5 114s57.166 43 98.499 43c84.667 0 127 -41.667 127 -125c0 -48.667 -12.167 -87 -36.5 -115s-57.166 -42 -98.499 -42z" />
    <glyph glyph-name="cedilla" unicode="&#xb8;" horiz-adv-x="682" 
d="M387 -70c49.333 -6.66699 88.999 -26.001 118.999 -58.001s45 -69.333 45 -112c0 -79.333 -28.833 -141.166 -86.5 -185.499s-137.5 -66.5 -239.5 -66.5c-52.667 0 -103.667 7.66699 -153 23l22 104c46.667 -10.667 92.334 -16 137.001 -16c101.333 0 152 41.667 152 125
c0 68 -43.667 106.333 -131 115l78 159h96z" />
    <glyph glyph-name="onesuperior" unicode="&#xb9;" horiz-adv-x="819" 
d="M135 588l15.001 69h94c56.667 0 90 26 100 78l125 590h-190l14 70h102c95.333 0 157.666 26 186.999 78h102l-143 -678c-10 -47.333 -15 -76 -15 -86c0 -34.667 24 -52 72 -52h94l-14 -69h-543z" />
    <glyph glyph-name="ordmasculine" unicode="&#xba;" horiz-adv-x="813" 
d="M420 780c-88.667 0 -158.001 22.833 -208.001 68.5s-75 108.167 -75 187.5c0 108 39 207 117 297s179 135 303 135c86.667 0 154.834 -22.167 204.501 -66.5s74.5 -105.833 74.5 -184.5c0 -109.333 -38.333 -209.5 -115 -300.5s-177 -136.5 -301 -136.5zM542.999 1386
c-65.333 0 -119.333 -39.668 -162 -119.001s-64 -163.666 -64 -252.999c0 -101.333 34.333 -152 103 -152c66 0 119.667 39.5 161 118.5s62 165.833 62 260.5c0 96.667 -33.333 145 -100 145z" />
    <glyph glyph-name="guillemotright" unicode="&#xbb;" horiz-adv-x="1053" 
d="M911 520l-389 -356h-102l299 399l-133 379h102l238 -356zM541 520l-389 -356h-103l299 399l-133 379h102l238 -356z" />
    <glyph glyph-name="onequarter" unicode="&#xbc;" horiz-adv-x="1720" 
d="M27 588l15.001 69h94c56.667 0 90 26 100 78l125 590h-190l14 70h102c95.333 0 157.666 26 186.999 78h102l-143 -678c-10 -47.333 -15 -76 -15 -86c0 -34.667 24 -52 72 -52h94l-14 -69h-543zM420.001 0h-143l1032 1462h139zM1437 261l-18 -84
c-5.33301 -24.667 -8 -43 -8 -55c0 -34.667 23.667 -52 71 -52h41l-14 -69h-451l15 69h57c56.667 0 90 26 100 78l25 113h-363l11 70l501 555h164l-112 -537h196l-18 -88h-197zM1323 572c16.667 75.333 30.333 128.667 41 160l-43 -59l-291 -324h243z" />
    <glyph glyph-name="onehalf" unicode="&#xbd;" horiz-adv-x="1720" 
d="M27 588l15.001 69h94c56.667 0 90 26 100 78l125 590h-190l14 70h102c95.333 0 157.666 26 186.999 78h102l-143 -678c-10 -47.333 -15 -76 -15 -86c0 -34.667 24 -52 72 -52h94l-14 -69h-543zM399.001 0h-143l1032 1462h139zM922.001 1l10 61.0029l318 262
c74 60.667 129.333 119.167 166 175.5s55 122.166 55 197.499c0 79.333 -34.333 119 -103 119c-41.333 0 -77.166 -17.833 -107.499 -53.5s-49.5 -82.834 -57.5 -141.501c-41.333 0 -73.666 9.16699 -96.999 27.5s-35 42.166 -35 71.499c0 51.333 28.167 93.833 84.5 127.5
s132.166 50.5 227.499 50.5c82.667 0 148 -18 196 -54s72 -83 72 -141c0 -64.667 -20.833 -125 -62.5 -181s-115.167 -126 -220.5 -210l-245 -195h282c51.333 0 87.666 28 108.999 84l16 43h70l-57 -243h-621z" />
    <glyph glyph-name="threequarters" unicode="&#xbe;" horiz-adv-x="1720" 
d="M155 842c0 -50 15.001 -91.834 45.001 -125.501s70 -50.5 120 -50.5c130 0 195 60.667 195 182c0 46 -16.333 83 -49 111s-78.334 42 -137.001 42h-68l16 84h68c64.667 0 118.667 20.667 162 62s65 94 65 158s-31.333 96 -94 96c-90.667 0 -148 -59.333 -172 -178
c-90 0 -135 28.667 -135 86c0 48.667 28.167 89.834 84.5 123.501s132.5 50.5 228.5 50.5c87.333 0 155.333 -17 204 -51s73 -79.333 73 -136c0 -126 -87.333 -206.333 -262 -241l-2 -11c137.333 -18 206 -80.667 206 -188c0 -88.667 -35.833 -158 -107.5 -208
s-168.167 -75 -289.5 -75c-86.667 0 -153 14.333 -199 43s-69 67 -69 115c0 74 39 111 117 111zM475.001 -0.000976562h-143l1032 1462h139zM1458 260.999l-18 -84c-5.33301 -24.667 -8 -43 -8 -55c0 -34.667 23.667 -52 71 -52h41l-14 -69h-451l15 69h57
c56.667 0 90 26 100 78l25 113h-363l11 70l501 555h164l-112 -537h196l-18 -88h-197zM1344 571.999c16.667 75.333 30.333 128.667 41 160l-43 -59l-291 -324h243z" />
    <glyph glyph-name="questiondown" unicode="&#xbf;" horiz-adv-x="1024" 
d="M666 1110c84.667 0 127 -41.667 127 -125c0 -47.333 -12.333 -85.5 -37 -114.5s-57.667 -43.5 -99 -43.5c-40 0 -71.167 11.5 -93.5 34.5s-33.5 53.167 -33.5 90.5c0 50 12.333 88.833 37 116.5s57.667 41.5 99 41.5zM506 444l50.999 237.999h125l-64 -303
c-276.667 -101.333 -415 -249.666 -415 -444.999c0 -66.667 18 -120.167 54 -160.5s84 -60.5 144 -60.5c141.333 0 226 97 254 291c98.667 0 148 -41 148 -123c0 -75.333 -38.167 -139.166 -114.5 -191.499s-176.166 -78.5 -299.499 -78.5c-258 0 -387 113.333 -387 340
c0 207.333 168 371.666 504 492.999z" />
    <glyph glyph-name="Agrave" unicode="&#xc0;" horiz-adv-x="1444" 
d="M408 489l-123.004 -215c-26 -45.333 -39 -83.333 -39 -114c0 -49.333 38 -74 114 -74h48l-17 -86h-506l17 86h39c36.667 0 67.334 9.5 92.001 28.5s57.334 62.833 98.001 131.5l713 1216h160l194 -1267c6.66699 -42.667 18.334 -71.5 35.001 -86.5
s45.334 -22.5 86.001 -22.5h27l-17 -86h-557l16 86h48c98 0 147 34.667 147 104c0 28 -1.33301 51.333 -4 70l-33 229h-538zM880.996 950c-20.667 145.333 -31.668 253.333 -33.001 324c-31.333 -74 -84.666 -175.667 -159.999 -305l-219 -377h463zM922.995 1579
c-102.667 100 -190.667 202.332 -264 306.999l6 21h205c40 -103.333 85.667 -203.666 137 -300.999l-6 -27h-78z" />
    <glyph glyph-name="Aacute" unicode="&#xc1;" horiz-adv-x="1444" 
d="M408 489l-123.004 -215c-26 -45.333 -39 -83.333 -39 -114c0 -49.333 38 -74 114 -74h48l-17 -86h-506l17 86h39c36.667 0 67.334 9.5 92.001 28.5s57.334 62.833 98.001 131.5l713 1216h160l194 -1267c6.66699 -42.667 18.334 -71.5 35.001 -86.5
s45.334 -22.5 86.001 -22.5h27l-17 -86h-557l16 86h48c98 0 147 34.667 147 104c0 28 -1.33301 51.333 -4 70l-33 229h-538zM880.996 950c-20.667 145.333 -31.668 253.333 -33.001 324c-31.333 -74 -84.666 -175.667 -159.999 -305l-219 -377h463zM837.995 1606
c78 90 151.001 190.333 219.001 301h219l-6 -21c-104.667 -122 -223.334 -224.333 -356.001 -307h-82z" />
    <glyph glyph-name="Acircumflex" unicode="&#xc2;" horiz-adv-x="1444" 
d="M408 489l-123.004 -215c-26 -45.333 -39 -83.333 -39 -114c0 -49.333 38 -74 114 -74h48l-17 -86h-506l17 86h39c36.667 0 67.334 9.5 92.001 28.5s57.334 62.833 98.001 131.5l713 1216h160l194 -1267c6.66699 -42.667 18.334 -71.5 35.001 -86.5
s45.334 -22.5 86.001 -22.5h27l-17 -86h-557l16 86h48c98 0 147 34.667 147 104c0 28 -1.33301 51.333 -4 70l-33 229h-538zM880.996 950c-20.667 145.333 -31.668 253.333 -33.001 324c-31.333 -74 -84.666 -175.667 -159.999 -305l-219 -377h463zM616.995 1606
c124 122 214.001 222.334 270.001 301.001h195c19.333 -78 65.666 -178.333 138.999 -301l-6 -27h-72c-63.333 43.333 -124 104.666 -182 183.999c-100 -84.667 -187.333 -146 -262 -184h-88z" />
    <glyph glyph-name="Atilde" unicode="&#xc3;" horiz-adv-x="1444" 
d="M408 489l-123.004 -215c-26 -45.333 -39 -83.333 -39 -114c0 -49.333 38 -74 114 -74h48l-17 -86h-506l17 86h39c36.667 0 67.334 9.5 92.001 28.5s57.334 62.833 98.001 131.5l713 1216h160l194 -1267c6.66699 -42.667 18.334 -71.5 35.001 -86.5
s45.334 -22.5 86.001 -22.5h27l-17 -86h-557l16 86h48c98 0 147 34.667 147 104c0 28 -1.33301 51.333 -4 70l-33 229h-538zM880.996 950c-20.667 145.333 -31.668 253.333 -33.001 324c-31.333 -74 -84.666 -175.667 -159.999 -305l-219 -377h463zM1229 1821h92
c-48 -161.333 -136.667 -242 -266 -242c-54 0 -110.333 21.667 -169 65c-59.333 42.667 -101.333 64 -126 64c-58.667 0 -99.667 -36 -123 -108h-92c48 160.667 137.333 241 268 241c54.667 0 111 -21.333 169 -64c58 -43.333 99.333 -65 124 -65
c59.333 0 100.333 36.333 123 109z" />
    <glyph glyph-name="Adieresis" unicode="&#xc4;" horiz-adv-x="1444" 
d="M408 489l-123.004 -215c-26 -45.333 -39 -83.333 -39 -114c0 -49.333 38 -74 114 -74h48l-17 -86h-506l17 86h39c36.667 0 67.334 9.5 92.001 28.5s57.334 62.833 98.001 131.5l713 1216h160l194 -1267c6.66699 -42.667 18.334 -71.5 35.001 -86.5
s45.334 -22.5 86.001 -22.5h27l-17 -86h-557l16 86h48c98 0 147 34.667 147 104c0 28 -1.33301 51.333 -4 70l-33 229h-538zM880.996 950c-20.667 145.333 -31.668 253.333 -33.001 324c-31.333 -74 -84.666 -175.667 -159.999 -305l-219 -377h463zM755.995 1632
c-68 0 -102 34.333 -102 103c0 86 36.667 129 110 129c68.667 0 103 -34.333 103 -103c0 -86 -37 -129 -111 -129zM1145 1632c-68 0 -102 34.333 -102 103c0 86 36.667 129 110 129c68.667 0 103 -34.333 103 -103c0 -86 -37 -129 -111 -129z" />
    <glyph glyph-name="Aring" unicode="&#xc5;" horiz-adv-x="1444" 
d="M408 489l-123.004 -215c-26 -45.333 -39 -83.333 -39 -114c0 -49.333 38 -74 114 -74h48l-17 -86h-506l17 86h39c36.667 0 67.334 9.5 92.001 28.5s57.334 62.833 98.001 131.5l713 1216h160l194 -1267c6.66699 -42.667 18.334 -71.5 35.001 -86.5
s45.334 -22.5 86.001 -22.5h27l-17 -86h-557l16 86h48c98 0 147 34.667 147 104c0 28 -1.33301 51.333 -4 70l-33 229h-538zM880.996 950c-20.667 145.333 -31.668 253.333 -33.001 324c-31.333 -74 -84.666 -175.667 -159.999 -305l-219 -377h463zM913.995 1362
c-71.333 0 -130.168 19.667 -176.501 59s-69.5 94 -69.5 164c0 69.333 23 123.833 69 163.5s105 59.5 177 59.5s131 -19.833 177 -59.5s69 -94.167 69 -163.5c0 -70 -23.167 -124.667 -69.5 -164s-105.166 -59 -176.499 -59zM913.993 1708c-90 0 -135 -41 -135 -123
s45 -123 135 -123s135 41 135 123s-45 123 -135 123z" />
    <glyph glyph-name="AE" unicode="&#xc6;" horiz-adv-x="1948" 
d="M-127 0l29 85.999h39c36 0 67.5 9.33301 94.5 28s65.833 62.667 116.5 132l815 1118l-174 12l18 86h1159l-65 -358h-107c6.66699 46.667 10 86.334 10 119.001c0 91.333 -48.333 137 -145 137h-344l-117 -545h494l-21 -100h-493l-131 -613h395
c114.667 0 191.667 56 231 168l33 88h107l-91 -358h-1097l16 86h27c68.667 0 116.667 11.833 144 35.5s45.333 57.5 54 101.5l56 266h-463l-154 -215c-36.667 -51.333 -55 -91.333 -55 -120c0 -45.333 34.667 -68 104 -68h48l-29 -86h-504zM1110 1360h-38.999
c-64.667 -112 -151.334 -242.333 -260.001 -391l-272 -377h409z" />
    <glyph glyph-name="Ccedilla" unicode="&#xc7;" horiz-adv-x="1284" 
d="M1073 299c18 -12.667 27.002 -35.332 27.002 -67.999c0 -65.333 -38 -123.5 -114 -174.5s-180.667 -76.5 -314 -76.5c-178 0 -316.833 47.667 -416.5 143s-149.5 230.333 -149.5 405c0 258.667 80.667 482.5 242 671.5s362 283.5 602 283.5
c119.333 0 212.333 -20.5 279 -61.5s100 -96.5 100 -166.5c0 -48.667 -18.333 -87.334 -55 -116.001s-85.334 -43 -146.001 -43c0 185.333 -68 278 -204 278c-168.667 0 -309.834 -91.833 -423.501 -275.5s-170.5 -384.5 -170.5 -602.5c0 -255.333 121.333 -383 364 -383
c158 0 284.333 62 379 186zM649.002 -69.998c49.333 -6.66699 88.999 -26.001 118.999 -58.001s45 -69.333 45 -112c0 -79.333 -28.833 -141.166 -86.5 -185.499s-137.5 -66.5 -239.5 -66.5c-52.667 0 -103.667 7.66699 -153 23l22 104
c46.667 -10.667 92.334 -16 137.001 -16c101.333 0 152 41.667 152 125c0 68 -43.667 106.333 -131 115l78 159h96z" />
    <glyph glyph-name="Egrave" unicode="&#xc8;" horiz-adv-x="1276" 
d="M379 102h395.002c115.333 0 192.666 56 231.999 168l32 88h107l-90 -358h-1098l16 86h27c69.333 0 117.5 12.167 144.5 36.5s45.167 57.833 54.5 100.5l213 1006c4 18.667 6 35 6 49c0 32 -9.33301 56.333 -28 73s-57.334 25 -116.001 25h-26l18 86h1032l-65 -358h-107
l6 63c3.33301 32 5 50.667 5 56c0 91.333 -48.667 137 -146 137h-344l-117 -545h494l-20 -100h-494zM849.002 1579c-102.667 100 -190.667 202.332 -264 306.999l6 21h205c40 -103.333 85.667 -203.666 137 -300.999l-6 -27h-78z" />
    <glyph glyph-name="Eacute" unicode="&#xc9;" horiz-adv-x="1276" 
d="M379 102h395.002c115.333 0 192.666 56 231.999 168l32 88h107l-90 -358h-1098l16 86h27c69.333 0 117.5 12.167 144.5 36.5s45.167 57.833 54.5 100.5l213 1006c4 18.667 6 35 6 49c0 32 -9.33301 56.333 -28 73s-57.334 25 -116.001 25h-26l18 86h1032l-65 -358h-107
l6 63c3.33301 32 5 50.667 5 56c0 91.333 -48.667 137 -146 137h-344l-117 -545h494l-20 -100h-494zM725.002 1606c78 90 151.001 190.333 219.001 301h219l-6 -21c-104.667 -122 -223.334 -224.333 -356.001 -307h-82z" />
    <glyph glyph-name="Ecircumflex" unicode="&#xca;" horiz-adv-x="1276" 
d="M379 102h395.002c115.333 0 192.666 56 231.999 168l32 88h107l-90 -358h-1098l16 86h27c69.333 0 117.5 12.167 144.5 36.5s45.167 57.833 54.5 100.5l213 1006c4 18.667 6 35 6 49c0 32 -9.33301 56.333 -28 73s-57.334 25 -116.001 25h-26l18 86h1032l-65 -358h-107
l6 63c3.33301 32 5 50.667 5 56c0 91.333 -48.667 137 -146 137h-344l-117 -545h494l-20 -100h-494zM551.002 1606c124 122 214.001 222.334 270.001 301.001h195c19.333 -78 65.666 -178.333 138.999 -301l-6 -27h-72c-63.333 43.333 -124 104.666 -182 183.999
c-100 -84.667 -187.333 -146 -262 -184h-88z" />
    <glyph glyph-name="Edieresis" unicode="&#xcb;" horiz-adv-x="1276" 
d="M379 102h395.002c115.333 0 192.666 56 231.999 168l32 88h107l-90 -358h-1098l16 86h27c69.333 0 117.5 12.167 144.5 36.5s45.167 57.833 54.5 100.5l213 1006c4 18.667 6 35 6 49c0 32 -9.33301 56.333 -28 73s-57.334 25 -116.001 25h-26l18 86h1032l-65 -358h-107
l6 63c3.33301 32 5 50.667 5 56c0 91.333 -48.667 137 -146 137h-344l-117 -545h494l-20 -100h-494zM643.002 1632c-68 0 -102 34.333 -102 103c0 86 36.667 129 110 129c68.667 0 103 -34.333 103 -103c0 -86 -37 -129 -111 -129zM1032 1632c-68 0 -102 34.333 -102 103
c0 86 36.667 129 110 129c68.667 0 103 -34.333 103 -103c0 -86 -37 -129 -111 -129z" />
    <glyph glyph-name="Igrave" unicode="&#xcc;" horiz-adv-x="752" 
d="M862 1462l-18 -85.999h-27c-65.333 0 -112.333 -12.333 -141 -37s-48 -61.334 -58 -110.001l-212 -1004c-6 -28.667 -9 -47.667 -9 -57c0 -54.667 49.333 -82 148 -82h26l-18 -86h-596l16 86h27c113.333 0 180.333 49 201 147l213 1004c5.33301 25.333 8 44.333 8 57
c0 54.667 -49.333 82 -148 82h-26l18 86h596zM607 1579c-102.667 100 -190.667 202.332 -264 306.999l6 21h205c40 -103.333 85.667 -203.666 137 -300.999l-6 -27h-78z" />
    <glyph glyph-name="Iacute" unicode="&#xcd;" horiz-adv-x="752" 
d="M862 1462l-18 -85.999h-27c-65.333 0 -112.333 -12.333 -141 -37s-48 -61.334 -58 -110.001l-212 -1004c-6 -28.667 -9 -47.667 -9 -57c0 -54.667 49.333 -82 148 -82h26l-18 -86h-596l16 86h27c113.333 0 180.333 49 201 147l213 1004c5.33301 25.333 8 44.333 8 57
c0 54.667 -49.333 82 -148 82h-26l18 86h596zM476 1606c78 90 151.001 190.333 219.001 301h219l-6 -21c-104.667 -122 -223.334 -224.333 -356.001 -307h-82z" />
    <glyph glyph-name="Icircumflex" unicode="&#xce;" horiz-adv-x="752" 
d="M862 1462l-18 -85.999h-27c-65.333 0 -112.333 -12.333 -141 -37s-48 -61.334 -58 -110.001l-212 -1004c-6 -28.667 -9 -47.667 -9 -57c0 -54.667 49.333 -82 148 -82h26l-18 -86h-596l16 86h27c113.333 0 180.333 49 201 147l213 1004c5.33301 25.333 8 44.333 8 57
c0 54.667 -49.333 82 -148 82h-26l18 86h596zM280 1606c124 122 214.001 222.334 270.001 301.001h195c19.333 -78 65.666 -178.333 138.999 -301l-6 -27h-72c-63.333 43.333 -124 104.666 -182 183.999c-100 -84.667 -187.333 -146 -262 -184h-88z" />
    <glyph glyph-name="Idieresis" unicode="&#xcf;" horiz-adv-x="752" 
d="M862 1462l-18 -85.999h-27c-65.333 0 -112.333 -12.333 -141 -37s-48 -61.334 -58 -110.001l-212 -1004c-6 -28.667 -9 -47.667 -9 -57c0 -54.667 49.333 -82 148 -82h26l-18 -86h-596l16 86h27c113.333 0 180.333 49 201 147l213 1004c5.33301 25.333 8 44.333 8 57
c0 54.667 -49.333 82 -148 82h-26l18 86h596zM404 1632c-68 0 -102 34.333 -102 103c0 86 36.667 129 110 129c68.667 0 103 -34.333 103 -103c0 -86 -37 -129 -111 -129zM793 1632c-68 0 -102 34.333 -102 103c0 86 36.667 129 110 129c68.667 0 103 -34.333 103 -103
c0 -86 -37 -129 -111 -129z" />
    <glyph glyph-name="Eth" unicode="&#xd0;" horiz-adv-x="1530" 
d="M-27 86h27.001c113.333 0 180.333 49 201 147l102 482h-199l23 100h197l90 422c5.33301 25.333 8 44.333 8 57c0 54.667 -49.333 82 -148 82h-26l18 86h615c186 0 329.333 -48.167 430 -144.5s151 -233.833 151 -412.5c0 -261.333 -74.333 -477.5 -223 -648.5
s-347.334 -256.5 -596.001 -256.5h-686zM598.001 104c196 0 351.833 75.333 467.5 226s173.5 350 173.5 598c0 288 -129.667 432 -389 432h-203l-117 -545h388l-23 -100h-387l-129 -611h219z" />
    <glyph glyph-name="Ntilde" unicode="&#xd1;" horiz-adv-x="1563" 
d="M1327 1237c5.33301 25.333 7.99902 44.333 7.99902 57c0 54.667 -49 82 -147 82h-27l19 86h514l-19 -86h-26c-65.333 0 -112.166 -12.5 -140.499 -37.5s-47.833 -61.5 -58.5 -109.5l-260 -1229h-133l-527 1200l-206 -975c-6 -28.667 -9 -47.667 -9 -57
c0 -54.667 49.333 -82 148 -82h26l-18 -86h-512l18 86h27c64 0 110 12.5 138 37.5s47.667 61.5 59 109.5l213 1004c5.33301 25.333 8 44.333 8 57c0 54.667 -49.333 82 -148 82h-26l18 86h373l496 -1130zM1347 1821h92c-48 -161.333 -136.667 -242 -266 -242
c-54 0 -110.333 21.667 -169 65c-59.333 42.667 -101.333 64 -126 64c-58.667 0 -99.667 -36 -123 -108h-92c48 160.667 137.333 241 268 241c54.667 0 111 -21.333 169 -64c58 -43.333 99.333 -65 124 -65c59.333 0 100.333 36.333 123 109z" />
    <glyph glyph-name="Ograve" unicode="&#xd2;" horiz-adv-x="1520" 
d="M926 1485c158.667 0 286.667 -49.333 384 -148s146 -237 146 -415c0 -234 -76 -450 -228 -648s-347 -297 -585 -297c-162 0 -292 51.167 -390 153.5s-147 240.5 -147 414.5c0 234.667 76.667 450 230 646s350 294 590 294zM655 90c170 0 308.501 94.167 415.501 282.5
s160.5 389.833 160.5 604.5c0 127.333 -28.167 225.333 -84.5 294s-135.5 103 -237.5 103c-170.667 0 -309.834 -94.5 -417.501 -283.5s-161.5 -390.167 -161.5 -603.5c0 -128 29 -226.167 87 -294.5s137.333 -102.5 238 -102.5zM1022 1579
c-102.667 100 -190.667 202.332 -264 306.999l6 21h205c40 -103.333 85.667 -203.666 137 -300.999l-6 -27h-78z" />
    <glyph glyph-name="Oacute" unicode="&#xd3;" horiz-adv-x="1520" 
d="M926 1485c158.667 0 286.667 -49.333 384 -148s146 -237 146 -415c0 -234 -76 -450 -228 -648s-347 -297 -585 -297c-162 0 -292 51.167 -390 153.5s-147 240.5 -147 414.5c0 234.667 76.667 450 230 646s350 294 590 294zM655 90c170 0 308.501 94.167 415.501 282.5
s160.5 389.833 160.5 604.5c0 127.333 -28.167 225.333 -84.5 294s-135.5 103 -237.5 103c-170.667 0 -309.834 -94.5 -417.501 -283.5s-161.5 -390.167 -161.5 -603.5c0 -128 29 -226.167 87 -294.5s137.333 -102.5 238 -102.5zM827.001 1606
c78 90 151.001 190.333 219.001 301h219l-6 -21c-104.667 -122 -223.334 -224.333 -356.001 -307h-82z" />
    <glyph glyph-name="Ocircumflex" unicode="&#xd4;" horiz-adv-x="1520" 
d="M926 1485c158.667 0 286.667 -49.333 384 -148s146 -237 146 -415c0 -234 -76 -450 -228 -648s-347 -297 -585 -297c-162 0 -292 51.167 -390 153.5s-147 240.5 -147 414.5c0 234.667 76.667 450 230 646s350 294 590 294zM655 90c170 0 308.501 94.167 415.501 282.5
s160.5 389.833 160.5 604.5c0 127.333 -28.167 225.333 -84.5 294s-135.5 103 -237.5 103c-170.667 0 -309.834 -94.5 -417.501 -283.5s-161.5 -390.167 -161.5 -603.5c0 -128 29 -226.167 87 -294.5s137.333 -102.5 238 -102.5zM639.001 1606
c124 122 214.001 222.334 270.001 301.001h195c19.333 -78 65.666 -178.333 138.999 -301l-6 -27h-72c-63.333 43.333 -124 104.666 -182 183.999c-100 -84.667 -187.333 -146 -262 -184h-88z" />
    <glyph glyph-name="Otilde" unicode="&#xd5;" horiz-adv-x="1520" 
d="M926 1485c158.667 0 286.667 -49.333 384 -148s146 -237 146 -415c0 -234 -76 -450 -228 -648s-347 -297 -585 -297c-162 0 -292 51.167 -390 153.5s-147 240.5 -147 414.5c0 234.667 76.667 450 230 646s350 294 590 294zM655 90c170 0 308.501 94.167 415.501 282.5
s160.5 389.833 160.5 604.5c0 127.333 -28.167 225.333 -84.5 294s-135.5 103 -237.5 103c-170.667 0 -309.834 -94.5 -417.501 -283.5s-161.5 -390.167 -161.5 -603.5c0 -128 29 -226.167 87 -294.5s137.333 -102.5 238 -102.5zM1272 1821h92
c-48 -161.333 -136.667 -242 -266 -242c-54 0 -110.333 21.667 -169 65c-59.333 42.667 -101.333 64 -126 64c-58.667 0 -99.667 -36 -123 -108h-92c48 160.667 137.333 241 268 241c54.667 0 111 -21.333 169 -64c58 -43.333 99.333 -65 124 -65
c59.333 0 100.333 36.333 123 109z" />
    <glyph glyph-name="Odieresis" unicode="&#xd6;" horiz-adv-x="1520" 
d="M926 1485c158.667 0 286.667 -49.333 384 -148s146 -237 146 -415c0 -234 -76 -450 -228 -648s-347 -297 -585 -297c-162 0 -292 51.167 -390 153.5s-147 240.5 -147 414.5c0 234.667 76.667 450 230 646s350 294 590 294zM655 90c170 0 308.501 94.167 415.501 282.5
s160.5 389.833 160.5 604.5c0 127.333 -28.167 225.333 -84.5 294s-135.5 103 -237.5 103c-170.667 0 -309.834 -94.5 -417.501 -283.5s-161.5 -390.167 -161.5 -603.5c0 -128 29 -226.167 87 -294.5s137.333 -102.5 238 -102.5zM780.001 1632c-68 0 -102 34.333 -102 103
c0 86 36.667 129 110 129c68.667 0 103 -34.333 103 -103c0 -86 -37 -129 -111 -129zM1169 1632c-68 0 -102 34.333 -102 103c0 86 36.667 129 110 129c68.667 0 103 -34.333 103 -103c0 -86 -37 -129 -111 -129z" />
    <glyph glyph-name="multiply" unicode="&#xd7;" 
d="M571 647l-340 -340l-86 88l340 340l-340 338l86 86l340 -340l340 342l86 -88l-340 -340l340 -340l-86 -86z" />
    <glyph glyph-name="Oslash" unicode="&#xd8;" horiz-adv-x="1520" 
d="M1217 1409l106 136.999h119l-150 -194c109.333 -101.333 164 -244.666 164 -429.999c0 -234 -76 -450 -228 -648s-347 -297 -585 -297c-110 0 -206.333 24.667 -289 74l-96 -133h-121l137 191c-112 104 -168 249.333 -168 436c0 234.667 76.667 450 230 646
s350 294 590 294c110 0 207 -25.333 291 -76zM379 249.999l751.001 1038c-56 57.333 -129.667 86 -221 86c-170.667 0 -309.834 -94.5 -417.501 -283.5s-161.5 -390.167 -161.5 -603.5c0 -92.667 16.333 -171.667 49 -237zM1188 1204l-749.999 -1036
c57.333 -52 129.666 -78 216.999 -78c170 0 308.5 94.167 415.5 282.5s160.5 389.833 160.5 604.5c0 86 -14.333 161.667 -43 227z" />
    <glyph glyph-name="Ugrave" unicode="&#xd9;" horiz-adv-x="1495" 
d="M205 1376l17.998 86h596l-16 -86h-27c-64 0 -110.667 -12.167 -140 -36.5s-49.666 -61.166 -60.999 -110.499l-153 -723c-16.667 -78.667 -25 -142.334 -25 -191.001c0 -142 98.333 -213 295 -213c110.667 0 198.334 24.667 263.001 74s109.667 131.333 135 246l174 815
c5.33301 24.667 8 43.667 8 57c0 54.667 -49.333 82 -148 82h-26l18 86h514l-16 -86h-27c-64 0 -110.667 -12.167 -140 -36.5s-49.666 -61.166 -60.999 -110.499l-172 -811c-62 -292 -246 -438 -552 -438c-150.667 0 -265.834 30.667 -345.501 92
s-119.5 148.666 -119.5 261.999c0 55.333 7.33301 116 22 182l152 721c5.33301 25.333 8 44.333 8 57c0 54.667 -49.333 82 -148 82h-26zM980.998 1579c-102.667 100 -190.667 202.332 -264 306.999l6 21h205c40 -103.333 85.667 -203.666 137 -300.999l-6 -27h-78z" />
    <glyph glyph-name="Uacute" unicode="&#xda;" horiz-adv-x="1495" 
d="M205 1376l17.998 86h596l-16 -86h-27c-64 0 -110.667 -12.167 -140 -36.5s-49.666 -61.166 -60.999 -110.499l-153 -723c-16.667 -78.667 -25 -142.334 -25 -191.001c0 -142 98.333 -213 295 -213c110.667 0 198.334 24.667 263.001 74s109.667 131.333 135 246l174 815
c5.33301 24.667 8 43.667 8 57c0 54.667 -49.333 82 -148 82h-26l18 86h514l-16 -86h-27c-64 0 -110.667 -12.167 -140 -36.5s-49.666 -61.166 -60.999 -110.499l-172 -811c-62 -292 -246 -438 -552 -438c-150.667 0 -265.834 30.667 -345.501 92
s-119.5 148.666 -119.5 261.999c0 55.333 7.33301 116 22 182l152 721c5.33301 25.333 8 44.333 8 57c0 54.667 -49.333 82 -148 82h-26zM863.998 1606c78 90 151.001 190.333 219.001 301h219l-6 -21c-104.667 -122 -223.334 -224.333 -356.001 -307h-82z" />
    <glyph glyph-name="Ucircumflex" unicode="&#xdb;" horiz-adv-x="1495" 
d="M205 1376l17.998 86h596l-16 -86h-27c-64 0 -110.667 -12.167 -140 -36.5s-49.666 -61.166 -60.999 -110.499l-153 -723c-16.667 -78.667 -25 -142.334 -25 -191.001c0 -142 98.333 -213 295 -213c110.667 0 198.334 24.667 263.001 74s109.667 131.333 135 246l174 815
c5.33301 24.667 8 43.667 8 57c0 54.667 -49.333 82 -148 82h-26l18 86h514l-16 -86h-27c-64 0 -110.667 -12.167 -140 -36.5s-49.666 -61.166 -60.999 -110.499l-172 -811c-62 -292 -246 -438 -552 -438c-150.667 0 -265.834 30.667 -345.501 92
s-119.5 148.666 -119.5 261.999c0 55.333 7.33301 116 22 182l152 721c5.33301 25.333 8 44.333 8 57c0 54.667 -49.333 82 -148 82h-26zM679.998 1606c124 122 214.001 222.334 270.001 301.001h195c19.333 -78 65.666 -178.333 138.999 -301l-6 -27h-72
c-63.333 43.333 -124 104.666 -182 183.999c-100 -84.667 -187.333 -146 -262 -184h-88z" />
    <glyph glyph-name="Udieresis" unicode="&#xdc;" horiz-adv-x="1495" 
d="M205 1376l17.998 86h596l-16 -86h-27c-64 0 -110.667 -12.167 -140 -36.5s-49.666 -61.166 -60.999 -110.499l-153 -723c-16.667 -78.667 -25 -142.334 -25 -191.001c0 -142 98.333 -213 295 -213c110.667 0 198.334 24.667 263.001 74s109.667 131.333 135 246l174 815
c5.33301 24.667 8 43.667 8 57c0 54.667 -49.333 82 -148 82h-26l18 86h514l-16 -86h-27c-64 0 -110.667 -12.167 -140 -36.5s-49.666 -61.166 -60.999 -110.499l-172 -811c-62 -292 -246 -438 -552 -438c-150.667 0 -265.834 30.667 -345.501 92
s-119.5 148.666 -119.5 261.999c0 55.333 7.33301 116 22 182l152 721c5.33301 25.333 8 44.333 8 57c0 54.667 -49.333 82 -148 82h-26zM773.998 1632c-68 0 -102 34.333 -102 103c0 86 36.667 129 110 129c68.667 0 103 -34.333 103 -103c0 -86 -37 -129 -111 -129z
M1163 1632c-68 0 -102 34.333 -102 103c0 86 36.667 129 110 129c68.667 0 103 -34.333 103 -103c0 -86 -37 -129 -111 -129z" />
    <glyph glyph-name="Yacute" unicode="&#xdd;" horiz-adv-x="1280" 
d="M729 1462l-17.999 -85.998h-103c-56 0 -84 -18.333 -84 -55c0 -26.667 9 -66.334 27 -119.001l92 -274c32.667 -97.333 51 -179.333 55 -246c13.333 25.333 64.666 97 153.999 215l195 260c50 66.667 75 122 75 166c0 35.333 -32.667 53 -98 53h-76l19 86h506l-19 -86
h-39c-26 0 -51.833 -10.5 -77.5 -31.5s-61.834 -62.167 -108.501 -123.5l-477 -625l-80 -371c-5.33301 -24.667 -8 -43.667 -8 -57c0 -54.667 49 -82 147 -82h47l-18 -86h-637l18 86h47c68.667 0 116.334 11.833 143.001 35.5s44.667 57.5 54 101.5l80 377l-238 668
c-15.333 43.333 -30.5 72.166 -45.5 86.499s-40.833 21.5 -77.5 21.5h-26l18 86h553zM770.001 1606c78 90 151.001 190.333 219.001 301h219l-6 -21c-104.667 -122 -223.334 -224.333 -356.001 -307h-82z" />
    <glyph glyph-name="Thorn" unicode="&#xde;" horiz-adv-x="1237" 
d="M-41 0l17.999 85.999h27c64 0 110.333 12.333 139 37s48 61.334 58 110.001l213 1004c5.33301 25.333 8 44.333 8 57c0 54.667 -49.333 82 -148 82h-26l18 86h617l-19 -86h-47c-68.667 0 -116.667 -12.833 -144 -38.5s-45.666 -61.834 -54.999 -108.501l-4 -21h121
c148 0 262.833 -34.333 344.5 -103s122.5 -166 122.5 -292c0 -155.333 -52.5 -277.166 -157.5 -365.499s-261.5 -132.5 -469.5 -132.5h-151l-18 -90c-6 -30 -9 -49 -9 -57c0 -54.667 49.333 -82 148 -82h47l-19 -86h-614zM443.999 411.999h109c288 0 432 133 432 399
c0 199.333 -99.667 299 -299 299h-94z" />
    <glyph glyph-name="germandbls" unicode="&#xdf;" horiz-adv-x="1284" 
d="M-279 -475l18.999 93.998c34 -9.33301 65.333 -14 94 -14c68 0 121 29.167 159 87.5s71 154.833 99 289.5l217 1019h-166l21 97h166l14 61c62.667 272 233.334 408 512.001 408c248.667 0 373 -104.667 373 -314c0 -72.667 -9.66699 -155 -29 -247h-176
c-150 0 -225 -56 -225 -168c0 -46.667 14.833 -85.667 44.5 -117s71.5 -62.666 125.5 -93.999c128 -75.333 192 -178 192 -308c0 -108 -33.833 -191.5 -101.5 -250.5s-165.5 -88.5 -293.5 -88.5c-96.667 0 -172.667 18.5 -228 55.5s-83 87.833 -83 152.5
c0 40 14.5 72.333 43.5 97s65.5 37 109.5 37c0 -162.667 57.333 -244 172 -244c60.667 0 109.334 17.5 146.001 52.5s55 82.167 55 141.5c0 92 -52 168.667 -156 230c-136 84 -204 181.667 -204 293c0 204.667 135.667 307 407 307c15.333 68.667 23 125.334 23 170.001
c0 135.333 -67 203 -201 203c-162 0 -264.333 -95.667 -307 -287l-258 -1204c-36 -166.667 -88.167 -287.667 -156.5 -363s-164.5 -113 -288.5 -113c-38.667 0 -78.334 5.66699 -119.001 17z" />
    <glyph glyph-name="agrave" unicode="&#xe0;" horiz-adv-x="1186" 
d="M748 309h-13.001c-98 -219.333 -225.667 -329 -383 -329c-83.333 0 -148.166 32.833 -194.499 98.5s-69.5 157.5 -69.5 275.5c0 188 58.5 362.333 175.5 523s261.833 241 434.5 241c92.667 0 172.667 -24.667 240 -74l90 52h66l-140 -656c-20 -94 -30 -169.667 -30 -227
c0 -69.333 22.333 -104 67 -104c38.667 0 88 17.667 148 53l37 -60c-98 -81.333 -194.333 -122 -289 -122c-106.667 0 -160 56.667 -160 170c0 43.333 7 96.333 21 159zM863.999 952c-31.333 49.333 -83 74 -155 74c-116.667 0 -214.5 -74.167 -293.5 -222.5
s-118.5 -300.833 -118.5 -457.5c0 -158 43 -237 129 -237c68 0 139.333 50.333 214 151s124 210.667 148 330zM704.999 1241c-102.667 100 -190.667 202.332 -264 306.999l6 21h205c40 -103.333 85.667 -203.666 137 -300.999l-6 -27h-78z" />
    <glyph glyph-name="aacute" unicode="&#xe1;" horiz-adv-x="1186" 
d="M748 309h-13.001c-98 -219.333 -225.667 -329 -383 -329c-83.333 0 -148.166 32.833 -194.499 98.5s-69.5 157.5 -69.5 275.5c0 188 58.5 362.333 175.5 523s261.833 241 434.5 241c92.667 0 172.667 -24.667 240 -74l90 52h66l-140 -656c-20 -94 -30 -169.667 -30 -227
c0 -69.333 22.333 -104 67 -104c38.667 0 88 17.667 148 53l37 -60c-98 -81.333 -194.333 -122 -289 -122c-106.667 0 -160 56.667 -160 170c0 43.333 7 96.333 21 159zM863.999 952c-31.333 49.333 -83 74 -155 74c-116.667 0 -214.5 -74.167 -293.5 -222.5
s-118.5 -300.833 -118.5 -457.5c0 -158 43 -237 129 -237c68 0 139.333 50.333 214 151s124 210.667 148 330zM636.999 1268c78 90 151.001 190.333 219.001 301h219l-6 -21c-104.667 -122 -223.334 -224.333 -356.001 -307h-82z" />
    <glyph glyph-name="acircumflex" unicode="&#xe2;" horiz-adv-x="1186" 
d="M748 309h-13.001c-98 -219.333 -225.667 -329 -383 -329c-83.333 0 -148.166 32.833 -194.499 98.5s-69.5 157.5 -69.5 275.5c0 188 58.5 362.333 175.5 523s261.833 241 434.5 241c92.667 0 172.667 -24.667 240 -74l90 52h66l-140 -656c-20 -94 -30 -169.667 -30 -227
c0 -69.333 22.333 -104 67 -104c38.667 0 88 17.667 148 53l37 -60c-98 -81.333 -194.333 -122 -289 -122c-106.667 0 -160 56.667 -160 170c0 43.333 7 96.333 21 159zM863.999 952c-31.333 49.333 -83 74 -155 74c-116.667 0 -214.5 -74.167 -293.5 -222.5
s-118.5 -300.833 -118.5 -457.5c0 -158 43 -237 129 -237c68 0 139.333 50.333 214 151s124 210.667 148 330zM409.999 1268c124 122 214.001 222.334 270.001 301.001h195c19.333 -78 65.666 -178.333 138.999 -301l-6 -27h-72c-63.333 43.333 -124 104.666 -182 183.999
c-100 -84.667 -187.333 -146 -262 -184h-88z" />
    <glyph glyph-name="atilde" unicode="&#xe3;" horiz-adv-x="1186" 
d="M748 309h-13.001c-98 -219.333 -225.667 -329 -383 -329c-83.333 0 -148.166 32.833 -194.499 98.5s-69.5 157.5 -69.5 275.5c0 188 58.5 362.333 175.5 523s261.833 241 434.5 241c92.667 0 172.667 -24.667 240 -74l90 52h66l-140 -656c-20 -94 -30 -169.667 -30 -227
c0 -69.333 22.333 -104 67 -104c38.667 0 88 17.667 148 53l37 -60c-98 -81.333 -194.333 -122 -289 -122c-106.667 0 -160 56.667 -160 170c0 43.333 7 96.333 21 159zM863.999 952c-31.333 49.333 -83 74 -155 74c-116.667 0 -214.5 -74.167 -293.5 -222.5
s-118.5 -300.833 -118.5 -457.5c0 -158 43 -237 129 -237c68 0 139.333 50.333 214 151s124 210.667 148 330zM1025 1483h92c-48 -161.333 -136.667 -242 -266 -242c-54 0 -110.333 21.667 -169 65c-59.333 42.667 -101.333 64 -126 64c-58.667 0 -99.667 -36 -123 -108h-92
c48 160.667 137.333 241 268 241c54.667 0 111 -21.333 169 -64c58 -43.333 99.333 -65 124 -65c59.333 0 100.333 36.333 123 109z" />
    <glyph glyph-name="adieresis" unicode="&#xe4;" horiz-adv-x="1186" 
d="M748 309h-13.001c-98 -219.333 -225.667 -329 -383 -329c-83.333 0 -148.166 32.833 -194.499 98.5s-69.5 157.5 -69.5 275.5c0 188 58.5 362.333 175.5 523s261.833 241 434.5 241c92.667 0 172.667 -24.667 240 -74l90 52h66l-140 -656c-20 -94 -30 -169.667 -30 -227
c0 -69.333 22.333 -104 67 -104c38.667 0 88 17.667 148 53l37 -60c-98 -81.333 -194.333 -122 -289 -122c-106.667 0 -160 56.667 -160 170c0 43.333 7 96.333 21 159zM863.999 952c-31.333 49.333 -83 74 -155 74c-116.667 0 -214.5 -74.167 -293.5 -222.5
s-118.5 -300.833 -118.5 -457.5c0 -158 43 -237 129 -237c68 0 139.333 50.333 214 151s124 210.667 148 330zM504.999 1294c-68 0 -102 34.333 -102 103c0 86 36.667 129 110 129c68.667 0 103 -34.333 103 -103c0 -86 -37 -129 -111 -129zM893.999 1294
c-68 0 -102 34.333 -102 103c0 86 36.667 129 110 129c68.667 0 103 -34.333 103 -103c0 -86 -37 -129 -111 -129z" />
    <glyph glyph-name="aring" unicode="&#xe5;" horiz-adv-x="1186" 
d="M748 309h-13.001c-98 -219.333 -225.667 -329 -383 -329c-83.333 0 -148.166 32.833 -194.499 98.5s-69.5 157.5 -69.5 275.5c0 188 58.5 362.333 175.5 523s261.833 241 434.5 241c92.667 0 172.667 -24.667 240 -74l90 52h66l-140 -656c-20 -94 -30 -169.667 -30 -227
c0 -69.333 22.333 -104 67 -104c38.667 0 88 17.667 148 53l37 -60c-98 -81.333 -194.333 -122 -289 -122c-106.667 0 -160 56.667 -160 170c0 43.333 7 96.333 21 159zM863.999 952c-31.333 49.333 -83 74 -155 74c-116.667 0 -214.5 -74.167 -293.5 -222.5
s-118.5 -300.833 -118.5 -457.5c0 -158 43 -237 129 -237c68 0 139.333 50.333 214 151s124 210.667 148 330zM736.999 1221c-71.333 0 -130.168 19.667 -176.501 59s-69.5 94 -69.5 164c0 69.333 23 123.833 69 163.5s105 59.5 177 59.5s131 -19.833 177 -59.5
s69 -94.167 69 -163.5c0 -70 -23.167 -124.667 -69.5 -164s-105.166 -59 -176.499 -59zM736.997 1567c-90 0 -135 -41 -135 -123s45 -123 135 -123s135 41 135 123s-45 123 -135 123z" />
    <glyph glyph-name="ae" unicode="&#xe6;" horiz-adv-x="1665" 
d="M1477 256c13.333 -9.33301 19.998 -26.332 19.998 -50.999c0 -56 -32.167 -107.5 -96.5 -154.5s-150.166 -70.5 -257.499 -70.5c-94 0 -175 25 -243 75s-113.333 123 -136 219c-77.333 -196 -199.666 -294 -366.999 -294c-93.333 0 -168.166 36 -224.499 108
s-84.5 171.667 -84.5 299c0 185.333 54.833 353.5 164.5 504.5s254.167 226.5 433.5 226.5c107.333 0 211.666 -42.333 312.999 -127c102 84.667 220.333 127 355 127c86.667 0 153.667 -20.667 201 -62s71 -99 71 -173c0 -110.667 -57.5 -207 -172.5 -289
s-255.5 -123 -421.5 -123h-35c-12 0 -24 0.666992 -36 2c-3.33301 -16.667 -5 -45.334 -5 -86.001c0 -185.333 75.333 -278 226 -278c114 0 212.333 49 295 147zM904.998 893.001c-64.667 88.667 -134.334 133.001 -209.001 133.001
c-115.333 0 -210.666 -72.333 -285.999 -217s-113 -292.667 -113 -444c0 -81.333 15.167 -144.333 45.5 -189s72.5 -67 126.5 -67c68 0 127 33 177 99s84.667 155 104 267c25.333 155.333 77 294.666 155 417.999zM978.998 567.002h20.001
c120.667 0 220.167 29.333 298.5 88s117.5 134.667 117.5 228c0 91.333 -39.667 137 -119 137c-66.667 0 -128.834 -42.5 -186.501 -127.5s-101.167 -193.5 -130.5 -325.5z" />
    <glyph glyph-name="ccedilla" unicode="&#xe7;" horiz-adv-x="997" 
d="M821 256c14 -8.66699 21 -25.665 21 -50.998c0 -54.667 -32.167 -105.834 -96.5 -153.501s-150.5 -71.5 -258.5 -71.5c-119.333 0 -215.666 37.667 -288.999 113s-110 178.666 -110 309.999c0 178.667 57.667 342.5 173 491.5s261 223.5 437 223.5
c94 0 167.333 -18.667 220 -56s79 -84 79 -140c0 -41.333 -16.5 -75.666 -49.5 -102.999s-77.167 -41 -132.5 -41c0 72.667 -14 131.167 -42 175.5s-66.667 66.5 -116 66.5c-95.333 0 -178.5 -71.333 -249.5 -214s-106.5 -282.334 -106.5 -419.001
c0 -185.333 75 -278 225 -278c119.333 0 217.666 49 294.999 147zM487 -69.998c49.333 -6.66699 88.999 -26.001 118.999 -58.001s45 -69.333 45 -112c0 -79.333 -28.833 -141.166 -86.5 -185.499s-137.5 -66.5 -239.5 -66.5c-52.667 0 -103.667 7.66699 -153 23l22 104
c46.667 -10.667 92.334 -16 137.001 -16c101.333 0 152 41.667 152 125c0 68 -43.667 106.333 -131 115l78 159h96z" />
    <glyph glyph-name="egrave" unicode="&#xe8;" horiz-adv-x="1010" 
d="M821 256c14 -8.66699 20.998 -25.6641 20.998 -50.9971c0 -54.667 -32.167 -105.834 -96.5 -153.501s-150.5 -71.5 -258.5 -71.5c-119.333 0 -215.666 37.667 -288.999 113s-110 178.666 -110 309.999c0 178.667 57.667 342.5 173 491.5s261 223.5 437 223.5
c86.667 0 153.834 -20.667 201.501 -62s71.5 -99 71.5 -173c0 -110.667 -57.5 -207 -172.5 -289s-255.5 -123 -421.5 -123h-35c-12 0 -24.333 0.666992 -37 2c-2.66699 -18.667 -4 -47.334 -4 -86.001c0 -185.333 75 -278 225 -278c116.667 0 215 49 295 147z
M323.998 567.003h20c120.667 0 220.167 29.333 298.5 88s117.5 134.667 117.5 228c0 91.333 -39.667 137 -119 137c-66 0 -127.667 -41.5 -185 -124.5s-101.333 -192.5 -132 -328.5zM720.998 1241c-102.667 100 -190.667 202.332 -264 306.999l6 21h205
c40 -103.333 85.667 -203.666 137 -300.999l-6 -27h-78z" />
    <glyph glyph-name="eacute" unicode="&#xe9;" horiz-adv-x="1010" 
d="M821 256c14 -8.66699 20.998 -25.6641 20.998 -50.9971c0 -54.667 -32.167 -105.834 -96.5 -153.501s-150.5 -71.5 -258.5 -71.5c-119.333 0 -215.666 37.667 -288.999 113s-110 178.666 -110 309.999c0 178.667 57.667 342.5 173 491.5s261 223.5 437 223.5
c86.667 0 153.834 -20.667 201.501 -62s71.5 -99 71.5 -173c0 -110.667 -57.5 -207 -172.5 -289s-255.5 -123 -421.5 -123h-35c-12 0 -24.333 0.666992 -37 2c-2.66699 -18.667 -4 -47.334 -4 -86.001c0 -185.333 75 -278 225 -278c116.667 0 215 49 295 147z
M323.998 567.003h20c120.667 0 220.167 29.333 298.5 88s117.5 134.667 117.5 228c0 91.333 -39.667 137 -119 137c-66 0 -127.667 -41.5 -185 -124.5s-101.333 -192.5 -132 -328.5zM613.998 1268c78 90 151.001 190.333 219.001 301h219l-6 -21
c-104.667 -122 -223.334 -224.333 -356.001 -307h-82z" />
    <glyph glyph-name="ecircumflex" unicode="&#xea;" horiz-adv-x="1010" 
d="M821 256c14 -8.66699 20.998 -25.6641 20.998 -50.9971c0 -54.667 -32.167 -105.834 -96.5 -153.501s-150.5 -71.5 -258.5 -71.5c-119.333 0 -215.666 37.667 -288.999 113s-110 178.666 -110 309.999c0 178.667 57.667 342.5 173 491.5s261 223.5 437 223.5
c86.667 0 153.834 -20.667 201.501 -62s71.5 -99 71.5 -173c0 -110.667 -57.5 -207 -172.5 -289s-255.5 -123 -421.5 -123h-35c-12 0 -24.333 0.666992 -37 2c-2.66699 -18.667 -4 -47.334 -4 -86.001c0 -185.333 75 -278 225 -278c116.667 0 215 49 295 147z
M323.998 567.003h20c120.667 0 220.167 29.333 298.5 88s117.5 134.667 117.5 228c0 91.333 -39.667 137 -119 137c-66 0 -127.667 -41.5 -185 -124.5s-101.333 -192.5 -132 -328.5zM386.998 1268c124 122 214.001 222.334 270.001 301.001h195
c19.333 -78 65.666 -178.333 138.999 -301l-6 -27h-72c-63.333 43.333 -124 104.666 -182 183.999c-100 -84.667 -187.333 -146 -262 -184h-88z" />
    <glyph glyph-name="edieresis" unicode="&#xeb;" horiz-adv-x="1010" 
d="M821 256c14 -8.66699 20.998 -25.6641 20.998 -50.9971c0 -54.667 -32.167 -105.834 -96.5 -153.501s-150.5 -71.5 -258.5 -71.5c-119.333 0 -215.666 37.667 -288.999 113s-110 178.666 -110 309.999c0 178.667 57.667 342.5 173 491.5s261 223.5 437 223.5
c86.667 0 153.834 -20.667 201.501 -62s71.5 -99 71.5 -173c0 -110.667 -57.5 -207 -172.5 -289s-255.5 -123 -421.5 -123h-35c-12 0 -24.333 0.666992 -37 2c-2.66699 -18.667 -4 -47.334 -4 -86.001c0 -185.333 75 -278 225 -278c116.667 0 215 49 295 147z
M323.998 567.003h20c120.667 0 220.167 29.333 298.5 88s117.5 134.667 117.5 228c0 91.333 -39.667 137 -119 137c-66 0 -127.667 -41.5 -185 -124.5s-101.333 -192.5 -132 -328.5zM508.998 1294c-68 0 -102 34.333 -102 103c0 86 36.667 129 110 129
c68.667 0 103 -34.333 103 -103c0 -86 -37 -129 -111 -129zM897.998 1294c-68 0 -102 34.333 -102 103c0 86 36.667 129 110 129c68.667 0 103 -34.333 103 -103c0 -86 -37 -129 -111 -129z" />
    <glyph glyph-name="igrave" unicode="&#xec;" horiz-adv-x="623" 
d="M127 1012l18 86.001h367l-139 -658c-20.667 -98 -31 -173.667 -31 -227c0 -69.333 22.667 -104 68 -104c39.333 0 88.333 17.667 147 53l37 -60c-94.667 -81.333 -187 -122 -277 -122c-50.667 0 -91.667 18.333 -123 55s-47 83 -47 139
c0 61.333 15.333 168.666 46 321.999l79 376c4.66699 22 7 40 7 54c0 57.333 -41.667 86 -125 86h-27zM455 1241c-102.667 100 -190.667 202.332 -264 306.999l6 21h205c40 -103.333 85.667 -203.666 137 -300.999l-6 -27h-78z" />
    <glyph glyph-name="iacute" unicode="&#xed;" horiz-adv-x="623" 
d="M127 1012l18 86.001h367l-139 -658c-20.667 -98 -31 -173.667 -31 -227c0 -69.333 22.667 -104 68 -104c39.333 0 88.333 17.667 147 53l37 -60c-94.667 -81.333 -187 -122 -277 -122c-50.667 0 -91.667 18.333 -123 55s-47 83 -47 139
c0 61.333 15.333 168.666 46 321.999l79 376c4.66699 22 7 40 7 54c0 57.333 -41.667 86 -125 86h-27zM333 1268c78 90 151.001 190.333 219.001 301h219l-6 -21c-104.667 -122 -223.334 -224.333 -356.001 -307h-82z" />
    <glyph glyph-name="icircumflex" unicode="&#xee;" horiz-adv-x="623" 
d="M127 1012l18 86.001h367l-139 -658c-20.667 -98 -31 -173.667 -31 -227c0 -69.333 22.667 -104 68 -104c39.333 0 88.333 17.667 147 53l37 -60c-94.667 -81.333 -187 -122 -277 -122c-50.667 0 -91.667 18.333 -123 55s-47 83 -47 139
c0 61.333 15.333 168.666 46 321.999l79 376c4.66699 22 7 40 7 54c0 57.333 -41.667 86 -125 86h-27zM79 1268c124 122 214.001 222.334 270.001 301.001h195c19.333 -78 65.666 -178.333 138.999 -301l-6 -27h-72c-63.333 43.333 -124 104.666 -182 183.999
c-100 -84.667 -187.333 -146 -262 -184h-88z" />
    <glyph glyph-name="idieresis" unicode="&#xef;" horiz-adv-x="623" 
d="M127 1012l18 86.001h367l-139 -658c-20.667 -98 -31 -173.667 -31 -227c0 -69.333 22.667 -104 68 -104c39.333 0 88.333 17.667 147 53l37 -60c-94.667 -81.333 -187 -122 -277 -122c-50.667 0 -91.667 18.333 -123 55s-47 83 -47 139
c0 61.333 15.333 168.666 46 321.999l79 376c4.66699 22 7 40 7 54c0 57.333 -41.667 86 -125 86h-27zM208 1294c-68 0 -102 34.333 -102 103c0 86 36.667 129 110 129c68.667 0 103 -34.333 103 -103c0 -86 -37 -129 -111 -129zM597 1294c-68 0 -102 34.333 -102 103
c0 86 36.667 129 110 129c68.667 0 103 -34.333 103 -103c0 -86 -37 -129 -111 -129z" />
    <glyph glyph-name="eth" unicode="&#xf0;" horiz-adv-x="1182" 
d="M877 983c-30 123.333 -78.001 220.334 -144.001 291.001l-293 -150l25 115l199 102c-59.333 45.333 -134.666 83.666 -225.999 114.999l35 103c122.667 -31.333 230.667 -82 324 -152l297 154l-27 -117l-201 -103c68 -67.333 121.833 -154.666 161.5 -261.999
s59.5 -220 59.5 -338c0 -232 -53.833 -419 -161.5 -561s-255.834 -213 -444.501 -213c-120 0 -215.5 35.5 -286.5 106.5s-106.5 169.5 -106.5 295.5c0 169.333 56 323.166 168 461.499s259.333 207.5 442 207.5c72.667 0 132.334 -18.333 179.001 -55zM503.999 68.001
c112.667 0 202.5 62.167 269.5 186.5s100.5 260.833 100.5 409.5c0 178.667 -66.667 268 -200 268c-112 0 -202.167 -62.167 -270.5 -186.5s-102.5 -260.833 -102.5 -409.5c0 -178.667 67.667 -268 203 -268z" />
    <glyph glyph-name="ntilde" unicode="&#xf1;" horiz-adv-x="1227" 
d="M281 0l-190.999 -0.00195312l172 823c8 38 12 68.667 12 92c0 64.667 -47.667 97 -143 97h-16l18 86h379l-55 -258h20c110.667 184 235 276 373 276c146 0 219 -75.667 219 -227c0 -43.333 -12.333 -118.333 -37 -225l-53 -242c-18 -82 -27 -153.667 -27 -215
c0 -65.333 24 -98 72 -98c39.333 0 83 15.667 131 47l37 -60c-89.333 -77.333 -172.666 -116 -249.999 -116c-56.667 0 -101.834 18.333 -135.501 55s-50.5 86.334 -50.5 149.001s13 155 39 277l47 212c20 82.667 30 146.334 30 191.001c0 80.667 -31.333 121 -94 121
c-76 0 -153.833 -51.333 -233.5 -154s-130.834 -205 -153.501 -307zM1046 1483h92c-48 -161.333 -136.667 -242 -266 -242c-54 0 -110.333 21.667 -169 65c-59.333 42.667 -101.333 64 -126 64c-58.667 0 -99.667 -36 -123 -108h-92c48 160.667 137.333 241 268 241
c54.667 0 111 -21.333 169 -64c58 -43.333 99.333 -65 124 -65c59.333 0 100.333 36.333 123 109z" />
    <glyph glyph-name="ograve" unicode="&#xf2;" horiz-adv-x="1176" 
d="M698 1118c120.667 0 215.665 -36.334 284.998 -109.001s104 -177.667 104 -315c0 -182 -55.667 -346.5 -167 -493.5s-257.666 -220.5 -438.999 -220.5c-123.333 0 -219.666 37.333 -288.999 112s-104 178.334 -104 311.001c0 184 56.167 349.167 168.5 495.5
s259.5 219.5 441.5 219.5zM503.998 79.999c112.667 0 202.5 66.832 269.5 200.499s100.5 281.834 100.5 444.501c0 190 -66.667 285 -200 285c-111.333 0 -201.333 -67 -270 -201s-103 -283 -103 -447c0 -188 67.667 -282 203 -282zM733.998 1241
c-102.667 100 -190.667 202.332 -264 306.999l6 21h205c40 -103.333 85.667 -203.666 137 -300.999l-6 -27h-78z" />
    <glyph glyph-name="oacute" unicode="&#xf3;" horiz-adv-x="1176" 
d="M698 1118c120.667 0 215.665 -36.334 284.998 -109.001s104 -177.667 104 -315c0 -182 -55.667 -346.5 -167 -493.5s-257.666 -220.5 -438.999 -220.5c-123.333 0 -219.666 37.333 -288.999 112s-104 178.334 -104 311.001c0 184 56.167 349.167 168.5 495.5
s259.5 219.5 441.5 219.5zM503.998 79.999c112.667 0 202.5 66.832 269.5 200.499s100.5 281.834 100.5 444.501c0 190 -66.667 285 -200 285c-111.333 0 -201.333 -67 -270 -201s-103 -283 -103 -447c0 -188 67.667 -282 203 -282zM628.998 1268
c78 90 151.001 190.333 219.001 301h219l-6 -21c-104.667 -122 -223.334 -224.333 -356.001 -307h-82z" />
    <glyph glyph-name="ocircumflex" unicode="&#xf4;" horiz-adv-x="1176" 
d="M698 1118c120.667 0 215.665 -36.334 284.998 -109.001s104 -177.667 104 -315c0 -182 -55.667 -346.5 -167 -493.5s-257.666 -220.5 -438.999 -220.5c-123.333 0 -219.666 37.333 -288.999 112s-104 178.334 -104 311.001c0 184 56.167 349.167 168.5 495.5
s259.5 219.5 441.5 219.5zM503.998 79.999c112.667 0 202.5 66.832 269.5 200.499s100.5 281.834 100.5 444.501c0 190 -66.667 285 -200 285c-111.333 0 -201.333 -67 -270 -201s-103 -283 -103 -447c0 -188 67.667 -282 203 -282zM398.998 1268
c124 122 214.001 222.334 270.001 301.001h195c19.333 -78 65.666 -178.333 138.999 -301l-6 -27h-72c-63.333 43.333 -124 104.666 -182 183.999c-100 -84.667 -187.333 -146 -262 -184h-88z" />
    <glyph glyph-name="otilde" unicode="&#xf5;" horiz-adv-x="1176" 
d="M698 1118c120.667 0 215.665 -36.334 284.998 -109.001s104 -177.667 104 -315c0 -182 -55.667 -346.5 -167 -493.5s-257.666 -220.5 -438.999 -220.5c-123.333 0 -219.666 37.333 -288.999 112s-104 178.334 -104 311.001c0 184 56.167 349.167 168.5 495.5
s259.5 219.5 441.5 219.5zM503.998 79.999c112.667 0 202.5 66.832 269.5 200.499s100.5 281.834 100.5 444.501c0 190 -66.667 285 -200 285c-111.333 0 -201.333 -67 -270 -201s-103 -283 -103 -447c0 -188 67.667 -282 203 -282zM1023 1483h92
c-48 -161.333 -136.667 -242 -266 -242c-54 0 -110.333 21.667 -169 65c-59.333 42.667 -101.333 64 -126 64c-58.667 0 -99.667 -36 -123 -108h-92c48 160.667 137.333 241 268 241c54.667 0 111 -21.333 169 -64c58 -43.333 99.333 -65 124 -65
c59.333 0 100.333 36.333 123 109z" />
    <glyph glyph-name="odieresis" unicode="&#xf6;" horiz-adv-x="1176" 
d="M698 1118c120.667 0 215.665 -36.334 284.998 -109.001s104 -177.667 104 -315c0 -182 -55.667 -346.5 -167 -493.5s-257.666 -220.5 -438.999 -220.5c-123.333 0 -219.666 37.333 -288.999 112s-104 178.334 -104 311.001c0 184 56.167 349.167 168.5 495.5
s259.5 219.5 441.5 219.5zM503.998 79.999c112.667 0 202.5 66.832 269.5 200.499s100.5 281.834 100.5 444.501c0 190 -66.667 285 -200 285c-111.333 0 -201.333 -67 -270 -201s-103 -283 -103 -447c0 -188 67.667 -282 203 -282zM517.998 1294
c-68 0 -102 34.333 -102 103c0 86 36.667 129 110 129c68.667 0 103 -34.333 103 -103c0 -86 -37 -129 -111 -129zM906.998 1294c-68 0 -102 34.333 -102 103c0 86 36.667 129 110 129c68.667 0 103 -34.333 103 -103c0 -86 -37 -129 -111 -129z" />
    <glyph glyph-name="divide" unicode="&#xf7;" 
d="M590 1233c69.333 0 104 -37.667 104 -113c0 -74.667 -34.667 -112 -104 -112c-70 0 -105 37.333 -105 112c0 75.333 35 113 105 113zM1028 672h-878v121h878v-121zM590 457c69.333 0 104 -37.667 104 -113s-34.667 -113 -104 -113c-70 0 -105 37.667 -105 113
s35 113 105 113z" />
    <glyph glyph-name="oslash" unicode="&#xf8;" horiz-adv-x="1182" 
d="M942 1044l115 136h119l-166 -203c51.333 -70.667 77 -165 77 -283c0 -183.333 -55.667 -349 -167 -497s-257.666 -222 -438.999 -222c-94 0 -175 24 -243 72l-107 -129h-121l162 195c-56 73.333 -84 170 -84 290c0 184 56.167 349.167 168.5 495.5
s259.5 219.5 441.5 219.5c99.333 0 180.666 -24.667 243.999 -74zM305 274l533.001 643.999c-32.667 61.333 -87.334 92 -164.001 92c-111.333 0 -201.333 -67 -270 -201s-103 -283 -103 -447c0 -43.333 1.33301 -72.666 4 -87.999zM868.001 808.999l-530 -641
c30.667 -61.333 86 -92 166 -92c112 0 201.667 67.167 269 201.5s101 283.5 101 447.5c0 29.333 -2 57.333 -6 84z" />
    <glyph glyph-name="ugrave" unicode="&#xf9;" horiz-adv-x="1227" 
d="M135 1098l380.999 0.00195312l-135 -613c-27.333 -124 -41 -206.333 -41 -247c0 -83.333 33.333 -125 100 -125c70 0 145.5 50.5 226.5 151.5s133.833 208.833 158.5 323.5l107 510h198l-141 -658c-20.667 -96.667 -31 -172.334 -31 -227.001
c0 -69.333 22.667 -104 68 -104c38.667 0 82.334 15 131.001 45l37 -60c-86.667 -76 -173.334 -114 -260.001 -114c-51.333 0 -92.833 18.333 -124.5 55s-47.5 83 -47.5 139c0 35.333 3.33301 75.666 10 120.999h-16c-74 -122 -140.167 -204.667 -198.5 -248
s-124.166 -65 -197.499 -65c-146 0 -219 75.667 -219 227c0 43.333 12.333 118.333 37 225l80 359c12 54 18 94.667 18 122c0 64.667 -47.667 97 -143 97h-16zM749.999 1241c-102.667 100 -190.667 202.332 -264 306.999l6 21h205c40 -103.333 85.667 -203.666 137 -300.999
l-6 -27h-78z" />
    <glyph glyph-name="uacute" unicode="&#xfa;" horiz-adv-x="1227" 
d="M135 1098l380.999 0.00195312l-135 -613c-27.333 -124 -41 -206.333 -41 -247c0 -83.333 33.333 -125 100 -125c70 0 145.5 50.5 226.5 151.5s133.833 208.833 158.5 323.5l107 510h198l-141 -658c-20.667 -96.667 -31 -172.334 -31 -227.001
c0 -69.333 22.667 -104 68 -104c38.667 0 82.334 15 131.001 45l37 -60c-86.667 -76 -173.334 -114 -260.001 -114c-51.333 0 -92.833 18.333 -124.5 55s-47.5 83 -47.5 139c0 35.333 3.33301 75.666 10 120.999h-16c-74 -122 -140.167 -204.667 -198.5 -248
s-124.166 -65 -197.499 -65c-146 0 -219 75.667 -219 227c0 43.333 12.333 118.333 37 225l80 359c12 54 18 94.667 18 122c0 64.667 -47.667 97 -143 97h-16zM646.999 1268c78 90 151.001 190.333 219.001 301h219l-6 -21c-104.667 -122 -223.334 -224.333 -356.001 -307
h-82z" />
    <glyph glyph-name="ucircumflex" unicode="&#xfb;" horiz-adv-x="1227" 
d="M135 1098l380.999 0.00195312l-135 -613c-27.333 -124 -41 -206.333 -41 -247c0 -83.333 33.333 -125 100 -125c70 0 145.5 50.5 226.5 151.5s133.833 208.833 158.5 323.5l107 510h198l-141 -658c-20.667 -96.667 -31 -172.334 -31 -227.001
c0 -69.333 22.667 -104 68 -104c38.667 0 82.334 15 131.001 45l37 -60c-86.667 -76 -173.334 -114 -260.001 -114c-51.333 0 -92.833 18.333 -124.5 55s-47.5 83 -47.5 139c0 35.333 3.33301 75.666 10 120.999h-16c-74 -122 -140.167 -204.667 -198.5 -248
s-124.166 -65 -197.499 -65c-146 0 -219 75.667 -219 227c0 43.333 12.333 118.333 37 225l80 359c12 54 18 94.667 18 122c0 64.667 -47.667 97 -143 97h-16zM433.999 1268c124 122 214.001 222.334 270.001 301.001h195c19.333 -78 65.666 -178.333 138.999 -301l-6 -27
h-72c-63.333 43.333 -124 104.666 -182 183.999c-100 -84.667 -187.333 -146 -262 -184h-88z" />
    <glyph glyph-name="udieresis" unicode="&#xfc;" horiz-adv-x="1227" 
d="M135 1098l380.999 0.00195312l-135 -613c-27.333 -124 -41 -206.333 -41 -247c0 -83.333 33.333 -125 100 -125c70 0 145.5 50.5 226.5 151.5s133.833 208.833 158.5 323.5l107 510h198l-141 -658c-20.667 -96.667 -31 -172.334 -31 -227.001
c0 -69.333 22.667 -104 68 -104c38.667 0 82.334 15 131.001 45l37 -60c-86.667 -76 -173.334 -114 -260.001 -114c-51.333 0 -92.833 18.333 -124.5 55s-47.5 83 -47.5 139c0 35.333 3.33301 75.666 10 120.999h-16c-74 -122 -140.167 -204.667 -198.5 -248
s-124.166 -65 -197.499 -65c-146 0 -219 75.667 -219 227c0 43.333 12.333 118.333 37 225l80 359c12 54 18 94.667 18 122c0 64.667 -47.667 97 -143 97h-16zM570.999 1294c-68 0 -102 34.333 -102 103c0 86 36.667 129 110 129c68.667 0 103 -34.333 103 -103
c0 -86 -37 -129 -111 -129zM959.999 1294c-68 0 -102 34.333 -102 103c0 86 36.667 129 110 129c68.667 0 103 -34.333 103 -103c0 -86 -37 -129 -111 -129z" />
    <glyph glyph-name="yacute" unicode="&#xfd;" horiz-adv-x="1081" 
d="M164 903c-12 40 -28.332 68.166 -48.999 84.499s-51.334 24.5 -92.001 24.5h-21l16 86h299l160 -553c49.333 -171.333 78 -295 86 -371h6c184.667 280.667 277 507.334 277 680.001c0 74 -33.667 111 -101 111c0 46 13.333 82.667 40 110s58 41 94 41
c92.667 0 139 -57.333 139 -172c0 -164.667 -92 -396.167 -276 -694.5s-331.5 -496.5 -442.5 -594.5s-257.167 -147 -438.5 -147c-72 0 -136.333 12.333 -193 37l31 103c48 -15.333 101.333 -23 160 -23c195.333 0 387 124.333 575 373zM535.001 1268
c78 90 151.001 190.333 219.001 301h219l-6 -21c-104.667 -122 -223.334 -224.333 -356.001 -307h-82z" />
    <glyph glyph-name="thorn" unicode="&#xfe;" horiz-adv-x="1151" 
d="M248 27c-6 -52 -11.001 -85.001 -15.001 -99.001l-31 -151c-9.33301 -38.667 -14 -70 -14 -94c0 -59.333 48 -89 144 -89h26l-18 -86h-389l373 1758c12 56.667 18 92.667 18 108c0 64 -47.667 96 -143 96h-17l19 86h377l-105 -491
c-11.333 -52.667 -31.666 -132.667 -60.999 -240h12c98.667 195.333 223.667 293 375 293c83.333 0 148.166 -31.667 194.499 -95s69.5 -155 69.5 -275c0 -183.333 -57.667 -357.166 -173 -521.499s-261.666 -246.5 -438.999 -246.5c-80 0 -147.667 15.667 -203 47z
M280.999 144.999c43.333 -48.667 97.668 -73.001 163.001 -73.001c114 0 210.833 74.333 290.5 223s119.5 300.334 119.5 455.001c0 75.333 -11.833 134 -35.5 176s-56.167 63 -97.5 63c-71.333 0 -143.333 -50.167 -216 -150.5s-119.334 -201.5 -140.001 -303.5z" />
    <glyph glyph-name="ydieresis" unicode="&#xff;" horiz-adv-x="1081" 
d="M164 903c-12 40 -28.332 68.166 -48.999 84.499s-51.334 24.5 -92.001 24.5h-21l16 86h299l160 -553c49.333 -171.333 78 -295 86 -371h6c184.667 280.667 277 507.334 277 680.001c0 74 -33.667 111 -101 111c0 46 13.333 82.667 40 110s58 41 94 41
c92.667 0 139 -57.333 139 -172c0 -164.667 -92 -396.167 -276 -694.5s-331.5 -496.5 -442.5 -594.5s-257.167 -147 -438.5 -147c-72 0 -136.333 12.333 -193 37l31 103c48 -15.333 101.333 -23 160 -23c195.333 0 387 124.333 575 373zM413.001 1294
c-68 0 -102 34.333 -102 103c0 86 36.667 129 110 129c68.667 0 103 -34.333 103 -103c0 -86 -37 -129 -111 -129zM802.001 1294c-68 0 -102 34.333 -102 103c0 86 36.667 129 110 129c68.667 0 103 -34.333 103 -103c0 -86 -37 -129 -111 -129z" />
    <glyph glyph-name="dotlessi" unicode="&#x131;" horiz-adv-x="623" 
d="M127 1012l18 86.001h367l-139 -658c-20.667 -98 -31 -173.667 -31 -227c0 -69.333 22.667 -104 68 -104c39.333 0 88.333 17.667 147 53l37 -60c-94.667 -81.333 -187 -122 -277 -122c-50.667 0 -91.667 18.333 -123 55s-47 83 -47 139
c0 61.333 15.333 168.666 46 321.999l79 376c4.66699 22 7 40 7 54c0 57.333 -41.667 86 -125 86h-27z" />
    <glyph glyph-name="circumflex" unicode="&#x2c6;" horiz-adv-x="1182" 
d="M381 1268c124 122 214.001 222.334 270.001 301.001h195c19.333 -78 65.666 -178.333 138.999 -301l-6 -27h-72c-63.333 43.333 -124 104.666 -182 183.999c-100 -84.667 -187.333 -146 -262 -184h-88z" />
    <glyph glyph-name="ring" unicode="&#x2da;" horiz-adv-x="682" 
d="M504 1221c-71.333 0 -130.168 19.667 -176.501 59s-69.5 94 -69.5 164c0 69.333 23 123.833 69 163.5s105 59.5 177 59.5s131 -19.833 177 -59.5s69 -94.167 69 -163.5c0 -70 -23.167 -124.667 -69.5 -164s-105.166 -59 -176.499 -59zM503.998 1567
c-90 0 -135 -41 -135 -123s45 -123 135 -123s135 41 135 123s-45 123 -135 123z" />
    <glyph glyph-name="tilde" unicode="&#x2dc;" horiz-adv-x="1182" 
d="M1028 1483h92c-48 -161.333 -136.667 -242 -266 -242c-54 0 -110.333 21.667 -169 65c-59.333 42.667 -101.333 64 -126 64c-58.667 0 -99.667 -36 -123 -108h-92c48 160.667 137.333 241 268 241c54.667 0 111 -21.333 169 -64c58 -43.333 99.333 -65 124 -65
c59.333 0 100.333 36.333 123 109z" />
    <glyph glyph-name="endash" unicode="&#x2013;" horiz-adv-x="1024" 
d="M1036 489h-1042l24 121h1045z" />
    <glyph glyph-name="emdash" unicode="&#x2014;" horiz-adv-x="2048" 
d="M2060 489h-2066l24 121h2069z" />
    <glyph glyph-name="quoteleft" unicode="&#x2018;" horiz-adv-x="512" 
d="M586 1462l-8 -86c-139.333 -30.667 -209 -88 -209 -172c0 -24 22.333 -50 67 -78c44 -28 66 -62.667 66 -104c0 -36.667 -11.667 -66 -35 -88s-54 -33 -92 -33c-44.667 0 -82.5 15.5 -113.5 46.5s-46.5 71.5 -46.5 121.5c0 98.667 31.667 182.667 95 252
s155.333 116.333 276 141z" />
    <glyph glyph-name="quoteright" unicode="&#x2019;" horiz-adv-x="512" 
d="M168 901l8 86.002c139.333 31.333 209 88.666 209 171.999c0 24 -22 50 -66 78c-44.667 28 -67 62.667 -67 104c0 36.667 11.667 66 35 88s54 33 92 33c46 0 84.167 -15.5 114.5 -46.5s45.5 -71.5 45.5 -121.5c0 -100.667 -32.167 -185.334 -96.5 -254.001
s-155.833 -115 -274.5 -139z" />
    <glyph glyph-name="quotesinglbase" unicode="&#x201a;" horiz-adv-x="512" 
d="M-57 -299l8 86c139.333 31.333 209 88.666 209 171.999c0 24 -22 50 -66 78c-44.667 28 -67 62.667 -67 104c0 36.667 11.667 66 35 88s54 33 92 33c46 0 84 -15.167 114 -45.5s45 -71.166 45 -122.499c0 -100 -31.667 -184.5 -95 -253.5s-155 -115.5 -275 -139.5z" />
    <glyph glyph-name="quotedblleft" unicode="&#x201c;" horiz-adv-x="922" 
d="M586 1462l-8 -86c-139.333 -30.667 -209 -88 -209 -172c0 -24 22.333 -50 67 -78c44 -28 66 -62.667 66 -104c0 -36.667 -11.667 -66 -35 -88s-54 -33 -92 -33c-44.667 0 -82.5 15.5 -113.5 46.5s-46.5 71.5 -46.5 121.5c0 98.667 31.667 182.667 95 252
s155.333 116.333 276 141zM995 1462l-8.00098 -86.001c-139.333 -31.333 -209 -88.666 -209 -171.999c0 -24 22.333 -50 67 -78c44 -28 66 -62.667 66 -104c0 -36.667 -11.5 -66 -34.5 -88s-53.833 -33 -92.5 -33c-45.333 0 -83.166 15.5 -113.499 46.5
s-45.5 71.5 -45.5 121.5c0 100 31.667 184.5 95 253.5s155 115.5 275 139.5z" />
    <glyph glyph-name="quotedblright" unicode="&#x201d;" horiz-adv-x="922" 
d="M168 901l8 86.002c139.333 31.333 209 88.666 209 171.999c0 24 -22 50 -66 78c-44.667 28 -67 62.667 -67 104c0 36.667 11.667 66 35 88s54 33 92 33c46 0 84.167 -15.5 114.5 -46.5s45.5 -71.5 45.5 -121.5c0 -100.667 -32.167 -185.334 -96.5 -254.001
s-155.833 -115 -274.5 -139zM578 901.002l7.99902 86.001c139.333 31.333 209 88.666 209 171.999c0 24 -22 50 -66 78c-44.667 28 -67 62.667 -67 104c0 36.667 11.333 66 34 88s53.334 33 92.001 33c46 0 84.167 -15.5 114.5 -46.5s45.5 -71.5 45.5 -121.5
c0 -101.333 -32.167 -186.333 -96.5 -255s-155.5 -114.667 -273.5 -138z" />
    <glyph glyph-name="quotedblbase" unicode="&#x201e;" horiz-adv-x="922" 
d="M-57 -299l8 86c139.333 31.333 209 88.666 209 171.999c0 24 -22 50 -66 78c-44.667 28 -67 62.667 -67 104c0 36.667 11.667 66 35 88s54 33 92 33c46 0 84 -15.167 114 -45.5s45 -71.166 45 -122.499c0 -100 -31.667 -184.5 -95 -253.5s-155 -115.5 -275 -139.5z
M350 -299l8 86.002c139.333 31.333 209 88.666 209 171.999c0 24 -22 50 -66 78c-44.667 28 -67 62.667 -67 104c0 36.667 11.667 66 35 88s54 33 92 33c46 0 84.167 -15.5 114.5 -46.5s45.5 -71.5 45.5 -121.5c0 -100.667 -32.167 -185.334 -96.5 -254.001
s-155.833 -115 -274.5 -139z" />
    <glyph glyph-name="bullet" unicode="&#x2022;" horiz-adv-x="741" 
d="M387 1026c180 0 270 -99 270 -297s-90 -297 -270 -297s-270 99 -270 297s90 297 270 297z" />
    <glyph glyph-name="guilsinglleft" unicode="&#x2039;" horiz-adv-x="682" 
d="M139 586l389 356h103l-295 -397l129 -381h-103l-237 356z" />
    <glyph glyph-name="guilsinglright" unicode="&#x203a;" horiz-adv-x="682" 
d="M543 520l-389 -356h-103l299 397l-133 381h102l238 -356z" />
    <glyph glyph-name="fraction" unicode="&#x2044;" horiz-adv-x="127" 
d="M-379 0h-143l1032 1462h139z" />
    <glyph glyph-name=".null" horiz-adv-x="0" 
 />
    <glyph glyph-name="nonmarkingreturn" horiz-adv-x="2048" 
 />
    <glyph glyph-name="foursuperior" horiz-adv-x="819" 
d="M608 848l-18 -84c-5.33301 -24.667 -8 -43 -8 -55c0 -34.667 23.667 -52 71 -52h41l-14 -69h-451l15 69h57c56.667 0 90 26 100 78l25 113h-363l11 70l501 555h164l-112 -537h196l-18 -88h-197zM494 1159c16.667 75.333 30.333 128.667 41 160l-43 -59l-291 -324h243z
" />
    </font>
</defs>
</svg>
